<?xml version="1.0" standalone="no"?>
<!DOCTYPE svg PUBLIC "-//W3C//DTD SVG 1.1//EN" "http://www.w3.org/Graphics/SVG/1.1/DTD/svg11.dtd" >
<svg xmlns="http://www.w3.org/2000/svg" xmlns:xlink="http://www.w3.org/1999/xlink" version="1.1">
<metadata>
Created by FontForge 20170731 at Tue Apr 27 19:14:10 2021
 By Aleksey,,,
Copyright 2015 The Rubik Project Authors (https://github.com/googlefonts/rubik)
</metadata>
<defs>
<font id="Rubik-Bold" horiz-adv-x="0" >
  <font-face 
    font-family="Rubik"
    font-weight="700"
    font-stretch="normal"
    units-per-em="1000"
    panose-1="0 0 0 0 0 0 0 0 0 0"
    ascent="800"
    descent="-200"
    x-height="520"
    cap-height="700"
    bbox="-209 -291 1174 930"
    underline-thickness="50"
    underline-position="-125"
    unicode-range="U+000D-FB4B"
  />
<missing-glyph horiz-adv-x="695" 
d="M102 -117q-22 0 -22 22v891q0 22 22 22h491q22 0 22 -22v-891q0 -22 -22 -22h-491zM181 -59h373v762zM141 -9l377 769h-377v-769z" />
    <glyph glyph-name="fi" unicode="fi" horiz-adv-x="676" 
d="M143 0q-10 0 -17.5 7.5t-7.5 17.5v364h-76q-11 0 -18 7t-7 18v81q0 11 7 18t18 7h76v32q0 68 26.5 109.5t75.5 60t117 18.5h256q10 0 17.5 -7t7.5 -18v-81q0 -11 -7.5 -18t-17.5 -7h-248q-34 0 -47.5 -16t-13.5 -46v-27h309q10 0 17.5 -7t7.5 -18v-470q0 -10 -7.5 -17.5
t-17.5 -7.5h-116q-11 0 -18 7.5t-7 17.5v364h-168v-364q0 -10 -7 -17.5t-18 -7.5h-116z" />
    <glyph glyph-name="fl" unicode="fl" horiz-adv-x="706" 
d="M143 0q-10 0 -17.5 7.5t-7.5 17.5v364h-76q-11 0 -18 7t-7 18v81q0 11 7 18t18 7h76v32q0 68 26.5 109.5t75.5 60t117 18.5h65q11 0 18.5 -7t7.5 -18v-81q0 -11 -7.5 -18t-18.5 -7h-57q-34 0 -47.5 -16t-13.5 -46v-27h197v195q0 11 7.5 18t18.5 7h115q11 0 18 -7t7 -18
v-690q0 -10 -7 -17.5t-18 -7.5h-115q-11 0 -18.5 7.5t-7.5 17.5v364h-197v-364q0 -10 -7 -17.5t-18 -7.5h-116z" />
    <glyph glyph-name="f_f" unicode="ff" horiz-adv-x="806" 
d="M143 0q-10 0 -17.5 7.5t-7.5 17.5v364h-76q-11 0 -18 7t-7 18v81q0 11 7 18t18 7h76v32q0 68 26.5 109.5t75.5 60t117 18.5h78q11 0 18 -7t7 -18v-81q0 -11 -7 -18t-18 -7h-70q-34 0 -47.5 -16t-13.5 -46v-27h197v32q0 68 27 109.5t76 60t117 18.5h77q11 0 18 -7t7 -18
v-81q0 -11 -7 -18t-18 -7h-70q-34 0 -47.5 -16t-13.5 -46v-27h121q11 0 18 -7t7 -18v-81q0 -11 -7 -18t-18 -7h-121v-364q0 -10 -7 -17.5t-18 -7.5h-115q-11 0 -18.5 7.5t-7.5 17.5v364h-197v-364q0 -10 -7 -17.5t-18 -7.5h-116z" />
    <glyph glyph-name="f_f_i" unicode="ffi" horiz-adv-x="1040" 
d="M143 0q-10 0 -17.5 7.5t-7.5 17.5v364h-76q-11 0 -18 7t-7 18v81q0 11 7 18t18 7h76v32q0 68 26.5 109.5t75.5 60t117 18.5h78q11 0 18 -7t7 -18v-81q0 -11 -7 -18t-18 -7h-70q-34 0 -47.5 -16t-13.5 -46v-27h197v32q0 68 27 109.5t76 60t117 18.5h255q11 0 18 -7t7 -18
v-81q0 -11 -7 -18t-18 -7h-248q-34 0 -47.5 -16t-13.5 -46v-27h309q11 0 18 -7t7 -18v-470q0 -10 -7 -17.5t-18 -7.5h-116q-10 0 -17.5 7.5t-7.5 17.5v364h-168v-364q0 -10 -7 -17.5t-18 -7.5h-115q-11 0 -18.5 7.5t-7.5 17.5v364h-197v-364q0 -10 -7 -17.5t-18 -7.5h-116z
" />
    <glyph glyph-name="f_f_l" unicode="ffl" horiz-adv-x="1070" 
d="M143 0q-10 0 -17.5 7.5t-7.5 17.5v364h-76q-11 0 -18 7t-7 18v81q0 11 7 18t18 7h76v32q0 68 26.5 109.5t75.5 60t117 18.5h78q11 0 18 -7t7 -18v-81q0 -11 -7 -18t-18 -7h-70q-34 0 -47.5 -16t-13.5 -46v-27h197v32q0 68 27 109.5t76 60t117 18.5h65q10 0 17.5 -7
t7.5 -18v-81q0 -11 -7.5 -18t-17.5 -7h-58q-34 0 -47.5 -16t-13.5 -46v-27h198v195q0 11 7 18t18 7h116q10 0 17.5 -7t7.5 -18v-690q0 -10 -7.5 -17.5t-17.5 -7.5h-116q-11 0 -18 7.5t-7 17.5v364h-198v-364q0 -10 -7 -17.5t-18 -7.5h-115q-11 0 -18.5 7.5t-7.5 17.5v364
h-197v-364q0 -10 -7 -17.5t-18 -7.5h-116z" />
    <glyph glyph-name=".notdef" horiz-adv-x="695" 
d="M102 -117q-22 0 -22 22v891q0 22 22 22h491q22 0 22 -22v-891q0 -22 -22 -22h-491zM181 -59h373v762zM141 -9l377 769h-377v-769z" />
    <glyph glyph-name=".null" 
 />
    <glyph glyph-name="nonmarkingreturn" horiz-adv-x="333" 
 />
    <glyph glyph-name="CR" unicode="&#xd;" horiz-adv-x="213" 
 />
    <glyph glyph-name="space" unicode=" " horiz-adv-x="213" 
 />
    <glyph glyph-name="exclam" unicode="!" horiz-adv-x="291" 
d="M88 221q-11 0 -18 7.5t-7 17.5v429q0 11 7 18t18 7h115q11 0 18 -7t7 -18v-429q0 -10 -7 -17.5t-18 -7.5h-115zM84 0q-11 0 -18 7.5t-7 17.5v123q0 11 7 18.5t18 7.5h123q10 0 17.5 -7.5t7.5 -18.5v-123q0 -10 -7.5 -17.5t-17.5 -7.5h-123z" />
    <glyph glyph-name="quotedbl" unicode="&#x22;" horiz-adv-x="452" 
d="M301 446q-14 0 -20 8t-8 19l-22 207q-2 14 5 22t19 8h112q12 0 18.5 -8t5.5 -22l-23 -207q-1 -11 -7 -19t-21 -8h-59zM92 446q-15 0 -20.5 8t-7.5 19l-23 207q-1 14 5.5 22t18.5 8h112q12 0 19 -8t5 -22l-22 -207q-1 -11 -7 -19t-21 -8h-59z" />
    <glyph glyph-name="numbersign" unicode="#" horiz-adv-x="686" 
d="M146 39q-9 0 -15.5 6.5t-5.5 15.5l14 96h-71q-10 0 -16.5 7t-6.5 17v79q0 10 6.5 16.5t16.5 6.5h90l19 128h-83q-10 0 -16.5 7t-6.5 17v79q0 10 6.5 16.5t16.5 6.5h102l15 97q2 8 7.5 14.5t15.5 6.5h80q9 0 15 -6.5t6 -15.5l-15 -96h103l15 97q2 8 7.5 14.5t15.5 6.5h80
q9 0 15 -6.5t6 -15.5l-15 -96h71q10 0 17 -6.5t7 -16.5v-79q0 -10 -7 -17t-17 -7h-89l-19 -128h82q10 0 17 -6.5t7 -16.5v-79q0 -10 -7 -17t-17 -7h-101l-14 -97q-3 -21 -24 -21h-80q-9 0 -15 6.5t-6 15.5l14 96h-102l-14 -97q-3 -21 -24 -21h-80zM283 283h102l19 128h-102z
" />
    <glyph glyph-name="dollar" unicode="$" horiz-adv-x="668" 
d="M291 -100q-11 0 -18 7.5t-7 17.5v70q-77 9 -128.5 38.5t-77.5 70.5t-28 87q0 8 6.5 14.5t15.5 6.5h126q14 0 21.5 -5t13.5 -13q8 -15 22.5 -29t38 -22.5t58.5 -8.5q58 0 87.5 18t29.5 49q0 23 -16 37t-51.5 25.5t-94.5 23.5q-76 16 -129.5 41.5t-81.5 67t-28 103.5
q0 80 57.5 136t158.5 70v70q0 11 7 18t18 7h83q10 0 17.5 -7t7.5 -18v-72q69 -12 116 -43t71.5 -70t25.5 -75q0 -8 -6 -14.5t-15 -6.5h-132q-11 0 -19 4t-14 13q-6 22 -32 38.5t-66 16.5q-44 0 -68.5 -15.5t-24.5 -47.5q0 -20 13.5 -35t45 -26t86.5 -23q91 -17 147 -42.5
t82 -66t26 -101.5q0 -59 -29.5 -104t-82.5 -73t-124 -37v-70q0 -10 -7.5 -17.5t-17.5 -7.5h-83z" />
    <glyph glyph-name="percent" unicode="%" horiz-adv-x="807" 
d="M112 0q-23 0 -23 20q0 6 4 11l494 650q7 9 14 14t21 5h71q23 0 23 -20q0 -6 -4 -11l-494 -650q-7 -9 -14 -14t-21 -5h-71zM615 -5q-68 0 -108.5 36t-45.5 96q-1 26 -1 46t1 48q4 61 43.5 97.5t110.5 36.5q72 0 111 -36.5t43 -97.5q2 -28 2 -48t-2 -46q-4 -60 -45 -96
t-109 -36zM615 83q17 0 26.5 7.5t14.5 19t6 23.5q2 23 2 42t-2 41q-1 19 -11.5 34.5t-35.5 15.5q-24 0 -34.5 -15.5t-11.5 -34.5q-1 -22 -1 -41t1 -42q1 -12 5.5 -23.5t14.5 -19t26 -7.5zM192 347q-69 0 -109.5 35.5t-44.5 95.5q-2 26 -1.5 46t1.5 48q3 60 42.5 96.5
t111.5 36.5t111 -36.5t42 -96.5q2 -28 2 -48t-2 -46q-3 -60 -44 -95.5t-109 -35.5zM192 434q16 0 26 7t15 18.5t5 23.5q2 23 2 42t-2 41q-1 19 -11.5 34.5t-34.5 15.5q-25 0 -35 -15.5t-12 -34.5q-1 -22 -1 -41t1 -42q2 -12 6 -23.5t14 -18.5t27 -7z" />
    <glyph glyph-name="ampersand" unicode="&#x26;" horiz-adv-x="742" 
d="M300 -10q-78 0 -135.5 24.5t-89 70.5t-31.5 110q0 43 17 77t47.5 62t70.5 51q-38 42 -54.5 77.5t-16.5 71.5q0 47 24 86.5t73 64.5t120 25q67 0 113 -24t70.5 -63.5t24.5 -85.5q0 -40 -17.5 -72t-48.5 -58.5t-73 -50.5l119 -119q7 13 22.5 41t28.5 74q3 14 21 14h101
q9 0 14.5 -5.5t5.5 -13.5q-1 -19 -10 -44.5t-24 -54t-33 -54.5t-35 -48l112 -113q7 -8 7 -15q0 -8 -5 -13t-14 -5h-136q-10 0 -16 3.5t-10 6.5l-45 43q-41 -33 -89.5 -48t-107.5 -15zM300 117q29 0 55.5 9t47.5 28l-133 133q-27 -14 -46.5 -35.5t-19.5 -49.5q0 -27 14 -46
t36 -29t46 -10zM309 448q23 12 41 24t29 27t11 33q0 27 -18.5 43.5t-46.5 16.5q-25 0 -45 -16t-20 -45q0 -12 4.5 -24t15.5 -26.5t29 -32.5z" />
    <glyph glyph-name="quotesingle" unicode="'" horiz-adv-x="243" 
d="M92 446q-15 0 -20.5 8t-7.5 19l-23 207q-1 14 5.5 22t18.5 8h112q12 0 19 -8t5 -22l-22 -207q-1 -11 -7 -19t-21 -8h-59z" />
    <glyph glyph-name="parenleft" unicode="(" horiz-adv-x="384" 
d="M336 -159q-69 0 -123.5 26.5t-92.5 82.5t-58 145t-20 214t20 214t58 145t92.5 82t123.5 26q10 0 17.5 -7.5t7.5 -17.5v-85q0 -10 -7.5 -17t-16.5 -8q-41 -2 -68.5 -25t-43 -65t-22.5 -103t-7 -139t7 -139t22.5 -103.5t43 -65.5t68.5 -25q9 -1 16.5 -8t7.5 -17v-85
q0 -10 -7.5 -17.5t-17.5 -7.5z" />
    <glyph glyph-name="parenright" unicode=")" horiz-adv-x="384" 
d="M48 -159q-10 0 -17.5 7.5t-7.5 17.5v85q0 10 7.5 17t16.5 8q42 2 69 25t42.5 65.5t22.5 103.5t7 139t-7 139t-22.5 103t-42.5 65t-69 25q-9 1 -16.5 8t-7.5 17v85q0 10 7.5 17.5t17.5 7.5q69 0 123.5 -26t92.5 -82t58 -145t20 -214t-20 -214t-58 -145t-92.5 -82.5
t-123.5 -26.5z" />
    <glyph glyph-name="asterisk" unicode="*" horiz-adv-x="445" 
d="M155 386l-72 54q-7 5 -8 14t3 16q0 1 5 6l65 54l-85 7l-4.5 1.5t-2.5 0.5q-8 2 -12.5 10.5t-2.5 17.5l29 85q2 8 11 12t16 2q1 0 8 -3l71 -45l-20 82q-1 3 -1 5v3q0 8 6.5 15t15.5 7h90q9 0 15.5 -7t6.5 -15v-3t-1 -5l-20 -82l72 45q7 3 8 3q8 2 16.5 -2t10.5 -12l29 -85
q2 -9 -2.5 -17.5t-12.5 -10.5q-1 0 -2.5 -0.5l-4.5 -1.5l-85 -7l65 -54q5 -5 5 -6q5 -7 4 -16t-9 -14l-72 -54q-8 -4 -17 -3t-14 8q0 2 -1 3t-3 4l-33 79l-32 -79q-1 -3 -2 -4t-2 -3q-4 -7 -13.5 -8t-17.5 3z" />
    <glyph glyph-name="plus" unicode="+" horiz-adv-x="607" 
d="M263 33q-11 0 -18 7.5t-7 17.5v183h-178q-11 0 -18.5 7t-7.5 18v73q0 11 7.5 18.5t18.5 7.5h178v177q0 11 7 18t18 7h82q10 0 17.5 -7t7.5 -18v-177h177q11 0 18 -7.5t7 -18.5v-73q0 -11 -7 -18t-18 -7h-177v-183q0 -10 -7.5 -17.5t-17.5 -7.5h-82z" />
    <glyph glyph-name="comma" unicode="," horiz-adv-x="278" 
d="M52 -75q-8 0 -14 6.5t-5 15.5l31 196q2 13 10.5 23.5t25.5 10.5h117q8 0 13.5 -5.5t5.5 -13.5q0 -6 -2 -11l-75 -194q-4 -10 -12 -19t-25 -9h-70z" />
    <glyph glyph-name="hyphen" unicode="-" horiz-adv-x="477" 
d="M82 228q-11 0 -18 7t-7 18v94q0 11 7 18t18 7h313q11 0 18.5 -7t7.5 -18v-94q0 -11 -7.5 -18t-18.5 -7h-313z" />
    <glyph glyph-name="period" unicode="." horiz-adv-x="284" 
d="M79 0q-11 0 -18 7.5t-7 17.5v127q0 11 7 18t18 7h127q10 0 17.5 -7t7.5 -18v-127q0 -10 -7.5 -17.5t-17.5 -7.5h-127z" />
    <glyph glyph-name="slash" unicode="/" horiz-adv-x="534" 
d="M45 -84q-9 0 -15.5 6.5t-6.5 14.5q0 5 3 10l338 815q4 8 12 16t24 8h90q9 0 15 -6.5t6 -14.5q0 -4 -2 -10l-340 -815q-3 -7 -11.5 -15.5t-24.5 -8.5h-88z" />
    <glyph glyph-name="zero" unicode="0" horiz-adv-x="680" 
d="M339 -10q-72 0 -124.5 20.5t-87.5 56.5t-53 84t-21 103q-1 27 -1.5 61.5t0 70t1.5 63.5q3 55 21.5 102.5t54 83t88 55.5t122.5 20q71 0 123.5 -20t87.5 -55.5t54 -83t22 -102.5q1 -28 1.5 -63.5t0 -70t-1.5 -61.5q-3 -55 -21.5 -103t-53 -84t-87 -56.5t-125.5 -20.5z
M339 135q52 0 75.5 33.5t24.5 90.5q2 29 2.5 61t0 64t-2.5 59q-1 55 -24.5 89t-75.5 35q-51 -1 -74.5 -35t-25.5 -89q0 -27 -0.5 -59t0 -64t0.5 -61q2 -57 26 -90.5t74 -33.5z" />
    <glyph glyph-name="one" unicode="1" horiz-adv-x="497" 
d="M277 0q-10 0 -17.5 7.5t-7.5 17.5v476l-137 -105q-9 -7 -18.5 -5t-16.5 11l-59 77q-6 9 -4.5 19.5t11.5 16.5l230 178q6 4 11.5 5.5t12.5 1.5h125q11 0 18 -7t7 -18v-650q0 -10 -7 -17.5t-18 -7.5h-130z" />
    <glyph glyph-name="two" unicode="2" horiz-adv-x="650" 
d="M67 0q-11 0 -18.5 7.5t-7.5 17.5v71q0 7 4 21.5t21 27.5l104 102q80 61 131.5 103.5t76.5 75.5t25 62q0 34 -17.5 56.5t-60.5 22.5q-29 0 -48 -12.5t-29.5 -32.5t-14.5 -41q-4 -13 -13.5 -18t-20.5 -5h-125q-9 0 -15 6t-6 15q1 48 20.5 90.5t55 74.5t85 50.5t111.5 18.5
q85 0 144.5 -27.5t90.5 -76t31 -113.5q0 -49 -21.5 -91.5t-61 -81t-93.5 -79.5l-92 -93h257q11 0 18.5 -7t7.5 -18v-101q0 -10 -7.5 -17.5t-18.5 -7.5h-513z" />
    <glyph glyph-name="three" unicode="3" horiz-adv-x="659" 
d="M325 -10q-77 0 -132.5 18.5t-90.5 48t-52 63t-18 64.5q0 9 6.5 15t15.5 6h131q11 0 18 -4.5t13 -14.5q8 -19 23.5 -31t37.5 -16.5t48 -4.5q51 0 79.5 23.5t28.5 64.5q0 43 -27 61.5t-77 18.5h-111q-11 0 -18 7t-7 18v56q0 12 5 21t11 13l164 139h-278q-10 0 -17.5 7
t-7.5 18v94q0 11 7.5 18t17.5 7h460q11 0 18.5 -7t7.5 -18v-85q0 -11 -5 -19.5t-11 -13.5l-152 -141l7 -2q58 -7 102.5 -30t70.5 -65.5t26 -107.5q0 -68 -38.5 -117.5t-104.5 -76.5t-151 -27z" />
    <glyph glyph-name="four" unicode="4" horiz-adv-x="683" 
d="M389 0q-10 0 -17.5 7.5t-7.5 17.5v113h-311q-10 0 -17.5 7t-7.5 18v95q0 9 3.5 16.5t7.5 14.5l291 394q13 17 37 17h146q10 0 17.5 -7t7.5 -18v-388h88q12 0 19 -7.5t7 -17.5v-99q0 -11 -7.5 -18t-17.5 -7h-89v-113q0 -10 -7.5 -17.5t-17.5 -7.5h-124zM200 280h168v236z
" />
    <glyph glyph-name="five" unicode="5" horiz-adv-x="646" 
d="M320 -11q-94 0 -157 29.5t-95.5 77t-34.5 102.5q0 9 6 15t15 6h134q13 0 20.5 -5t11.5 -14q9 -23 24 -38t34 -22t43 -7q28 0 52 12t38.5 35.5t14.5 56.5q0 30 -13.5 52t-37 35t-54.5 13q-24 0 -39 -5.5t-25 -13.5t-18 -13.5t-18 -5.5h-131q-9 0 -15.5 6.5t-6.5 15.5
l36 349q2 15 11 22.5t22 7.5h401q11 0 18.5 -7t7.5 -18v-94q0 -11 -7.5 -18t-18.5 -7h-290l-13 -129q22 14 51.5 24t81.5 10q47 0 90.5 -16.5t78 -46.5t54 -71.5t19.5 -93.5q0 -71 -34.5 -126t-99.5 -86.5t-156 -31.5z" />
    <glyph glyph-name="six" unicode="6" horiz-adv-x="651" 
d="M331 -10q-89 0 -156 32t-104.5 88.5t-37.5 129.5q0 31 9.5 61.5t23.5 58t28 49t23 34.5l176 237q5 5 13 12.5t23 7.5h133q9 0 15 -6.5t6 -15.5q0 -4 -1 -7.5t-3 -5.5l-135 -184q6 2 14.5 2.5t15.5 0.5q45 -2 89 -20t80 -49t57.5 -74.5t21.5 -96.5q0 -70 -36 -127.5
t-101.5 -92t-153.5 -34.5zM329 134q29 0 54 12.5t40.5 36.5t15.5 58q0 35 -15 58.5t-40 35.5t-55 12t-55.5 -12t-40.5 -35.5t-15 -58.5q0 -34 15.5 -58t40.5 -36.5t55 -12.5z" />
    <glyph glyph-name="seven" unicode="7" horiz-adv-x="573" 
d="M141 0q-9 0 -15 6.5t-6 15.5q0 4 2 9l231 518h-299q-11 0 -18.5 7.5t-7.5 18.5v100q0 11 7.5 18t18.5 7h467q12 0 19 -7t7 -18v-89q0 -15 -3 -25t-8 -20l-231 -517q-3 -6 -11 -15t-24 -9h-129z" />
    <glyph glyph-name="eight" unicode="8" horiz-adv-x="677" 
d="M338 -10q-74 0 -129.5 17.5t-91.5 47.5t-54 70t-18 85q0 55 27.5 97t69.5 65q-35 23 -53.5 57.5t-18.5 80.5q0 56 29 101t88 72t151 27q91 0 150 -26.5t87.5 -71.5t28.5 -101q0 -45 -18 -80.5t-52 -58.5q45 -22 71.5 -65t26.5 -98q0 -60 -32.5 -110t-97.5 -79.5
t-164 -29.5zM338 118q32 0 57.5 11t40.5 31.5t15 49.5t-15 49t-40.5 31t-57.5 11t-58 -11t-41 -31t-15 -49t15 -49.5t41 -31.5t58 -11zM338 422q28 0 51 10.5t36 28t13 41.5t-12.5 42t-35.5 28t-52 10t-51.5 -10t-35.5 -28t-13 -42t13 -42t35.5 -28t51.5 -10z" />
    <glyph glyph-name="nine" unicode="9" horiz-adv-x="641" 
d="M174 0q-9 0 -15 6.5t-6 15.5q0 5 1.5 8l2.5 5l141 193q-14 -3 -29 -3q-45 3 -88 20.5t-77.5 48t-54.5 72.5t-20 94q0 48 18 92.5t54 80t89.5 56.5t124.5 21q72 0 126.5 -18.5t91.5 -52t56 -78t19 -94.5q0 -46 -16.5 -85t-40 -73.5t-48.5 -69.5l-160 -219q-4 -5 -12 -12.5
t-24 -7.5h-133zM317 357q30 0 54 12.5t38 35.5t14 56t-14 56.5t-38 36t-54 12.5q-29 0 -53 -12.5t-38 -36t-14 -56.5t14 -56t38 -35.5t53 -12.5z" />
    <glyph glyph-name="colon" unicode=":" horiz-adv-x="292" 
d="M82 350q-10 0 -17.5 7.5t-7.5 17.5v121q0 10 7.5 17.5t17.5 7.5h127q11 0 18.5 -7.5t7.5 -17.5v-121q0 -10 -7.5 -17.5t-18.5 -7.5h-127zM82 0q-10 0 -17.5 7.5t-7.5 17.5v121q0 10 7.5 17.5t17.5 7.5h127q11 0 18.5 -7.5t7.5 -17.5v-121q0 -10 -7.5 -17.5t-18.5 -7.5
h-127z" />
    <glyph glyph-name="semicolon" unicode=";" horiz-adv-x="300" 
d="M59 -75q-9 0 -14.5 6.5t-4.5 15.5l30 196q2 13 10.5 23.5t25.5 10.5h117q8 0 13.5 -5.5t5.5 -13.5q0 -6 -2 -11l-75 -194q-4 -10 -12 -19t-25 -9h-69zM96 350q-11 0 -18.5 7.5t-7.5 17.5v121q0 10 7.5 17.5t18.5 7.5h126q11 0 18.5 -7.5t7.5 -17.5v-121q0 -10 -7.5 -17.5
t-18.5 -7.5h-126z" />
    <glyph glyph-name="less" unicode="&#x3c;" horiz-adv-x="517" 
d="M436 7q-3 0 -7.5 2t-9.5 4l-360 245q-14 10 -21.5 19.5t-7.5 24.5v31q0 15 7.5 24t21.5 19l360 245q5 3 9.5 5t7.5 2q9 0 15 -5.5t6 -15.5v-107q0 -16 -9 -24.5t-19 -15.5l-218 -143l218 -143q10 -7 19 -15t9 -24v-108q0 -9 -6 -14.5t-15 -5.5z" />
    <glyph glyph-name="equal" unicode="=" horiz-adv-x="566" 
d="M86 361q-10 0 -17.5 7.5t-7.5 17.5v78q0 11 7.5 18t17.5 7h394q11 0 18 -7t7 -18v-78q0 -10 -7 -17.5t-18 -7.5h-394zM86 111q-10 0 -17.5 7.5t-7.5 17.5v78q0 11 7.5 18t17.5 7h394q11 0 18 -7t7 -18v-78q0 -10 -7 -17.5t-18 -7.5h-394z" />
    <glyph glyph-name="greater" unicode="&#x3e;" horiz-adv-x="516" 
d="M80 7q-8 0 -14 5.5t-6 14.5v108q0 16 9 24t19 14l217 144l-217 143q-10 6 -19 15t-9 24v108q0 9 6 15t14 6q4 0 8.5 -2t8.5 -5l361 -245q15 -10 22 -19t7 -25v-30q0 -15 -7 -24.5t-22 -19.5l-361 -245q-4 -2 -8.5 -4t-8.5 -2z" />
    <glyph glyph-name="question" unicode="?" horiz-adv-x="597" 
d="M234 212q-8 0 -14 5.5t-6 13.5v12v11q6 35 23.5 63.5t41 52.5t45.5 45t37.5 41.5t16.5 41.5q2 22 -8.5 37t-29 23t-39.5 8q-40 0 -63 -19t-33 -56q-3 -11 -10 -17.5t-21 -6.5h-122q-10 0 -17 7.5t-7 19.5q1 40 19.5 78t54 69.5t88.5 50t123 18.5q75 0 124.5 -18t78 -47
t40.5 -61.5t11 -60.5q-2 -36 -15 -65t-32.5 -53.5t-41 -47t-39.5 -45t-27 -47.5q-2 -7 -4 -13.5t-3 -13.5q-6 -13 -12.5 -19.5t-18.5 -6.5h-140zM236 0q-11 0 -18 7.5t-7 17.5v114q0 10 7 17.5t18 7.5h128q11 0 18.5 -7.5t7.5 -17.5v-114q0 -10 -7.5 -17.5t-18.5 -7.5h-128z
" />
    <glyph glyph-name="at" unicode="@" horiz-adv-x="845" 
d="M429 -130q-122 0 -203.5 40t-124 112t-51.5 164q-1 14 -2 37t-1 49t1 49t2 36q6 63 31.5 120.5t71 102t111 70t152.5 25.5q104 0 175 -23.5t115.5 -66.5t66.5 -101.5t27 -126.5q2 -21 2 -44.5t-0.5 -45.5t-1.5 -36q-3 -50 -25 -84t-55.5 -51t-72.5 -17q-33 0 -58 9
t-40.5 20.5t-23.5 21.5q-8 -12 -21.5 -26.5t-39 -24.5t-69.5 -10q-74 0 -117 55t-43 149q0 95 41.5 150t115.5 55q40 0 63 -13t38 -33v13q0 11 7 18t18 7h51q11 0 18 -7t7 -18v-202q0 -33 14.5 -50t38.5 -17q20 0 31.5 10.5t16 26t4.5 29.5q1 22 1.5 50.5t-1.5 59.5
q-5 76 -33 126.5t-88 75t-162 24.5q-85 0 -140.5 -28.5t-86 -79.5t-38.5 -118q-2 -17 -2.5 -48t0 -62.5t2.5 -50.5q12 -106 79 -165t199 -59q63 0 100 7.5t59.5 20t40.5 25.5q8 6 14.5 10t16.5 4h71q10 0 17.5 -7t6.5 -18q0 -4 -1.5 -7.5t-4.5 -7.5q-28 -32 -70.5 -60.5
t-104 -46t-145.5 -17.5zM414 166q40 0 59.5 26t19.5 81t-19.5 81.5t-59.5 26.5q-38 0 -58 -26.5t-20 -81.5q0 -34 8.5 -58t26 -36.5t43.5 -12.5z" />
    <glyph glyph-name="A" unicode="A" horiz-adv-x="716" 
d="M30 0q-8 0 -14.5 6.5t-6.5 14.5q0 5 1 9l235 642q3 11 12.5 19.5t26.5 8.5h148q17 0 26.5 -8.5t12.5 -19.5l234 -642q2 -4 2 -9q0 -8 -6.5 -14.5t-15.5 -6.5h-123q-15 0 -22.5 7.5t-9.5 13.5l-39 102h-267l-38 -102q-2 -6 -9 -13.5t-24 -7.5h-123zM265 267h186l-93 264z
" />
    <glyph glyph-name="B" unicode="B" horiz-adv-x="704" 
d="M95 0q-11 0 -18 7.5t-7 17.5v650q0 11 7 18t18 7h305q86 0 141 -24t81.5 -68.5t26.5 -105.5q0 -36 -13.5 -63.5t-33 -45.5t-36.5 -26q38 -18 67.5 -59t29.5 -96q0 -66 -29.5 -113.5t-86 -73t-138.5 -25.5h-314zM250 130h139q43 0 65 25t22 57q0 35 -22.5 59t-64.5 24
h-139v-165zM250 422h130q41 0 61.5 21.5t20.5 53.5t-20.5 52.5t-61.5 20.5h-130v-148z" />
    <glyph glyph-name="C" unicode="C" horiz-adv-x="702" 
d="M357 -10q-94 0 -162 31t-105.5 91t-41.5 149q-1 41 -1 88t1 90q4 87 42 148t106 92t161 31q66 0 122 -16.5t98 -48t65.5 -76t24.5 -100.5q1 -9 -5.5 -15t-15.5 -6h-135q-13 0 -20 5.5t-12 20.5q-14 53 -45.5 72.5t-77.5 19.5q-55 0 -87 -30.5t-35 -101.5q-3 -82 0 -168
q3 -71 35 -101.5t87 -30.5q46 0 78 20t45 72q4 15 11.5 20.5t20.5 5.5h135q9 0 15.5 -6t5.5 -15q-1 -56 -24.5 -100.5t-65.5 -76t-98 -48t-122 -16.5z" />
    <glyph glyph-name="D" unicode="D" horiz-adv-x="716" 
d="M95 0q-11 0 -18 7.5t-7 17.5v650q0 11 7 18t18 7h260q98 0 167 -31.5t106 -92t40 -149.5q1 -44 1 -77t-1 -76q-4 -93 -39.5 -154t-103 -90.5t-165.5 -29.5h-265zM250 144h105q43 0 71.5 13.5t43 42.5t15.5 76q2 29 2.5 52t0 46t-2.5 51q-2 68 -35.5 99.5t-99.5 31.5h-100
v-412z" />
    <glyph glyph-name="E" unicode="E" horiz-adv-x="639" 
d="M95 0q-11 0 -18 7.5t-7 17.5v650q0 11 7 18t18 7h467q11 0 18 -7t7 -18v-94q0 -11 -7 -18t-18 -7h-319v-135h297q11 0 18 -7.5t7 -18.5v-87q0 -10 -7 -17.5t-18 -7.5h-297v-139h327q11 0 18 -7t7 -18v-94q0 -10 -7 -17.5t-18 -7.5h-475z" />
    <glyph glyph-name="F" unicode="F" horiz-adv-x="618" 
d="M95 0q-11 0 -18 7.5t-7 17.5v650q0 11 7 18t18 7h460q11 0 18 -7t7 -18v-101q0 -11 -7 -18t-18 -7h-309v-147h289q11 0 18 -7.5t7 -18.5v-100q0 -10 -7 -17.5t-18 -7.5h-289v-226q0 -10 -7 -17.5t-18 -7.5h-126z" />
    <glyph glyph-name="G" unicode="G" horiz-adv-x="720" 
d="M359 -10q-95 0 -163.5 31.5t-106 92t-41.5 147.5q-1 43 -1 91.5t1 92.5q4 85 42 144t107 90t162 31q75 0 133 -18.5t97.5 -49.5t60.5 -68t22 -73q0 -9 -6.5 -15t-15.5 -6h-146q-11 0 -16.5 3.5t-9.5 10.5q-7 15 -20.5 31.5t-37 28.5t-61.5 12q-56 0 -89 -30t-36 -96
q-3 -86 0 -174q3 -70 37 -101t91 -31q37 0 66.5 13t46.5 40.5t17 70.5v19h-94q-11 0 -18 7.5t-7 18.5v74q0 11 7 18.5t18 7.5h252q11 0 18 -7.5t7 -18.5v-114q0 -86 -39 -147t-110.5 -93.5t-166.5 -32.5z" />
    <glyph glyph-name="H" unicode="H" horiz-adv-x="745" 
d="M95 0q-11 0 -18 7t-7 18v650q0 11 7 18t18 7h129q11 0 18.5 -7t7.5 -18v-241h246v241q0 11 7 18t18 7h129q11 0 18 -7t7 -18v-650q0 -10 -7 -17.5t-18 -7.5h-129q-11 0 -18 7.5t-7 17.5v249h-246v-249q0 -10 -7.5 -17.5t-18.5 -7.5h-129z" />
    <glyph glyph-name="I" unicode="I" horiz-adv-x="324" 
d="M95 0q-11 0 -18 7.5t-7 17.5v650q0 11 7 18t18 7h134q11 0 18.5 -7t7.5 -18v-650q0 -10 -7.5 -17.5t-18.5 -7.5h-134z" />
    <glyph glyph-name="J" unicode="J" horiz-adv-x="671" 
d="M312 -10q-57 0 -108.5 14.5t-91.5 43.5t-63.5 72t-25.5 100q0 9 6 15.5t16 6.5h135q14 0 21.5 -7t12.5 -21q6 -28 19.5 -45.5t35 -26t48.5 -8.5q50 0 77 32.5t27 95.5v289h-324q-10 0 -17.5 7t-7.5 18v99q0 11 7.5 18t17.5 7h484q11 0 18.5 -7t7.5 -18v-418
q0 -87 -37.5 -146.5t-104 -90t-153.5 -30.5z" />
    <glyph glyph-name="K" unicode="K" horiz-adv-x="663" 
d="M95 0q-11 0 -18 7.5t-7 17.5v650q0 11 7 18t18 7h126q11 0 18 -7t7 -18v-222l185 228q4 6 13.5 12.5t25.5 6.5h144q9 0 15 -6.5t6 -14.5q0 -7 -3 -12l-240 -302l258 -332q4 -4 4 -12t-6 -14.5t-15 -6.5h-149q-18 0 -27.5 8t-12.5 12l-198 247v-242q0 -10 -7 -17.5
t-18 -7.5h-126z" />
    <glyph glyph-name="L" unicode="L" horiz-adv-x="597" 
d="M95 0q-11 0 -18 7.5t-7 17.5v650q0 11 7 18t18 7h132q11 0 18 -7t7 -18v-524h303q11 0 18 -7.5t7 -18.5v-100q0 -10 -7 -17.5t-18 -7.5h-460z" />
    <glyph glyph-name="M" unicode="M" horiz-adv-x="828" 
d="M95 0q-10 0 -17.5 7.5t-7.5 17.5v650q0 11 7.5 18t17.5 7h108q17 0 25 -8.5t10 -13.5l176 -315l176 315q3 5 10.5 13.5t24.5 8.5h107q11 0 18.5 -7t7.5 -18v-650q0 -10 -7.5 -17.5t-18.5 -7.5h-119q-11 0 -18.5 7.5t-7.5 17.5v375l-112 -209q-5 -9 -13 -16t-22 -7h-52
q-14 0 -22 7t-13 16l-113 209v-375q0 -10 -7 -17.5t-18 -7.5h-120z" />
    <glyph glyph-name="N" unicode="N" horiz-adv-x="719" 
d="M95 0q-11 0 -18 7.5t-7 17.5v650q0 11 7 18t18 7h106q17 0 24.5 -7.5t9.5 -11.5l244 -384v378q0 11 7 18t18 7h120q11 0 18 -7t7 -18v-649q0 -11 -7 -18.5t-18 -7.5h-107q-16 0 -23.5 8t-9.5 11l-244 370v-364q0 -10 -7 -17.5t-18 -7.5h-120z" />
    <glyph glyph-name="O" unicode="O" horiz-adv-x="712" 
d="M356 -10q-92 0 -160 30t-106 90.5t-42 151.5q-1 43 -1 86.5t1 86.5q4 90 42.5 151.5t107 92.5t158.5 31q91 0 159 -31t107 -92.5t42 -151.5q2 -43 2 -86.5t-2 -86.5q-3 -91 -41.5 -151.5t-106.5 -90.5t-160 -30zM356 134q53 0 86.5 32t35.5 102q2 44 2 83t-2 81
q-2 47 -17.5 76.5t-42.5 43.5t-62 14q-34 0 -61 -14t-43 -43.5t-18 -76.5q-1 -42 -1 -81t1 -83q3 -70 36.5 -102t85.5 -32z" />
    <glyph glyph-name="P" unicode="P" horiz-adv-x="676" 
d="M95 0q-11 0 -18 7.5t-7 17.5v650q0 11 7 18t18 7h280q83 0 144.5 -25.5t96 -76.5t34.5 -129q0 -77 -34.5 -127t-96 -74t-144.5 -24h-119v-219q0 -10 -7.5 -17.5t-18.5 -7.5h-135zM253 382h117q43 0 68.5 22t25.5 67q0 38 -22 64t-72 26h-117v-179z" />
    <glyph glyph-name="Q" unicode="Q" horiz-adv-x="712" 
d="M516 -65q-16 0 -24.5 8.5t-13.5 14.5l-34 45q-39 -13 -89 -13q-92 0 -159.5 30t-106 90.5t-41.5 151.5q-1 43 -1 86.5t1 86.5q3 90 42 151.5t107 92.5t158 31q91 0 159 -31t107.5 -92.5t41.5 -151.5q2 -43 2 -86.5t-2 -86.5q-5 -124 -72 -192l73 -104q1 -1 2 -4t1 -6
q1 -8 -5 -14.5t-15 -6.5h-131zM355 134q53 0 86.5 32t35.5 102q2 44 2 83t-2 81q-1 47 -17 76.5t-42.5 43.5t-62.5 14q-34 0 -61 -14t-42.5 -43.5t-17.5 -76.5q-1 -42 -1 -81t1 -83q3 -70 36 -102t85 -32z" />
    <glyph glyph-name="R" unicode="R" horiz-adv-x="691" 
d="M95 0q-11 0 -18 7.5t-7 17.5v650q0 11 7 18t18 7h272q130 0 204 -59.5t74 -168.5q0 -71 -34 -120t-90 -74l137 -246q3 -6 3 -11q0 -8 -6.5 -14.5t-14.5 -6.5h-133q-19 0 -28 9.5t-13 17.5l-114 220h-102v-222q0 -10 -7.5 -17.5t-18.5 -7.5h-129zM250 389h115
q47 0 70.5 23t23.5 62t-22.5 63t-71.5 24h-115v-172z" />
    <glyph glyph-name="S" unicode="S" horiz-adv-x="663" 
d="M331 -10q-100 0 -166 28.5t-100 74.5t-36 98q0 8 6.5 14.5t15.5 6.5h126q14 0 21.5 -5t13.5 -13q8 -15 22.5 -29t38.5 -22.5t58 -8.5q58 0 87.5 18t29.5 49q0 23 -16 37t-51.5 25.5t-94.5 23.5q-76 16 -129.5 41.5t-81.5 67t-28 103.5q0 61 34.5 109t96.5 75t147 27
q69 0 121.5 -18t88.5 -48t54.5 -63.5t19.5 -65.5q0 -8 -5.5 -14.5t-15.5 -6.5h-132q-11 0 -19 4t-14 13q-6 22 -31.5 38.5t-66.5 16.5q-44 0 -68.5 -15.5t-24.5 -47.5q0 -20 13.5 -35t45 -26t86.5 -23q91 -17 147 -42.5t82.5 -66t26.5 -101.5q0 -68 -39 -117t-106.5 -75.5
t-156.5 -26.5z" />
    <glyph glyph-name="T" unicode="T" horiz-adv-x="630" 
d="M249 0q-11 0 -18 7.5t-7 17.5v518h-178q-11 0 -18 7.5t-7 17.5v107q0 11 7 18t18 7h538q11 0 18 -7t7 -18v-107q0 -10 -7 -17.5t-18 -7.5h-178v-518q0 -10 -7 -17.5t-18 -7.5h-132z" />
    <glyph glyph-name="U" unicode="U" horiz-adv-x="725" 
d="M364 -10q-91 0 -158.5 29.5t-104.5 91t-37 156.5v408q0 11 7 18t18 7h129q11 0 18.5 -7t7.5 -18v-407q0 -65 31 -97.5t88 -32.5q56 0 87.5 32.5t31.5 97.5v407q0 11 7.5 18t17.5 7h130q10 0 17.5 -7t7.5 -18v-408q0 -95 -37 -156.5t-104 -91t-157 -29.5z" />
    <glyph glyph-name="V" unicode="V" horiz-adv-x="693" 
d="M270 0q-17 0 -27 9t-14 21l-204 640q-2 5 -2 9q0 8 6.5 14.5t15.5 6.5h124q16 0 25 -9t11 -17l142 -462l141 462q3 8 11.5 17t24.5 9h125q8 0 14.5 -6.5t6.5 -14.5q0 -4 -2 -9l-204 -640q-3 -12 -13 -21t-28 -9h-153z" />
    <glyph glyph-name="W" unicode="W" horiz-adv-x="831" 
d="M182 0q-17 0 -27 10t-12 23l-109 639q-1 3 -1 4.5v2.5q0 8 6.5 14.5t14.5 6.5h124q28 0 31 -22l65 -390l72 230q3 8 10 17.5t23 9.5h72q17 0 24 -9.5t9 -17.5l72 -230l65 390q3 22 31 22h124q9 0 15.5 -6.5t6.5 -14.5q0 -1 -0.5 -2.5t-0.5 -4.5l-109 -639q-2 -13 -12 -23
t-27 -10h-95q-17 0 -26 9t-12 17l-101 286l-101 -286q-3 -8 -11.5 -17t-25.5 -9h-95z" />
    <glyph glyph-name="X" unicode="X" horiz-adv-x="690" 
d="M33 0q-9 0 -15.5 6.5t-6.5 14.5q0 3 1 6t3 6l218 324l-202 310q-3 6 -3 12q0 8 6 14.5t15 6.5h145q15 0 23 -7.5t12 -13.5l119 -181l121 181q4 6 12 13.5t23 7.5h138q8 0 14.5 -6.5t6.5 -14.5q0 -7 -4 -12l-203 -309l220 -325q2 -3 2.5 -6t0.5 -6q0 -8 -6 -14.5t-15 -6.5
h-149q-15 0 -23.5 7.5t-11.5 12.5l-132 192l-131 -192q-3 -5 -11 -12.5t-23 -7.5h-144z" />
    <glyph glyph-name="Y" unicode="Y" horiz-adv-x="681" 
d="M275 0q-10 0 -17.5 7.5t-7.5 17.5v215l-232 428q-1 3 -2 5.5t-1 5.5q0 8 6.5 14.5t15.5 6.5h125q15 0 23.5 -7.5t11.5 -13.5l143 -258l144 258q3 6 11.5 13.5t23.5 7.5h125q9 0 15 -6.5t6 -14.5q0 -3 -0.5 -5.5t-1.5 -5.5l-232 -428v-215q0 -10 -7.5 -17.5t-18.5 -7.5
h-130z" />
    <glyph glyph-name="Z" unicode="Z" horiz-adv-x="650" 
d="M63 0q-11 0 -18 7.5t-7 18.5v97q0 14 5.5 23t9.5 13l322 392h-303q-10 0 -17.5 7t-7.5 18v99q0 11 7.5 18t17.5 7h505q11 0 18 -7t7 -18v-97q0 -11 -3.5 -19t-9.5 -15l-313 -393h312q11 0 18.5 -7.5t7.5 -18.5v-100q0 -10 -7.5 -17.5t-18.5 -7.5h-525z" />
    <glyph glyph-name="bracketleft" unicode="[" horiz-adv-x="383" 
d="M86 -159q-10 0 -17.5 7.5t-7.5 17.5v885q0 11 7.5 18t17.5 7h246q11 0 18 -7t7 -18v-86q0 -11 -7 -18t-18 -7h-116v-652h116q11 0 18 -7t7 -18v-97q0 -10 -7 -17.5t-18 -7.5h-246z" />
    <glyph glyph-name="backslash" unicode="\" horiz-adv-x="533" 
d="M401 -84q-17 0 -25 8.5t-11 15.5l-340 815q-3 6 -3 10q0 8 6.5 14.5t15.5 6.5h90q15 0 24 -8t11 -16l339 -815q2 -5 2 -10q0 -8 -6 -14.5t-15 -6.5h-88z" />
    <glyph glyph-name="bracketright" unicode="]" horiz-adv-x="383" 
d="M51 -159q-11 0 -18 7.5t-7 17.5v97q0 11 7 18t18 7h116v652h-116q-11 0 -18 7t-7 18v86q0 11 7 18t18 7h246q10 0 17.5 -7t7.5 -18v-885q0 -10 -7.5 -17.5t-17.5 -7.5h-246z" />
    <glyph glyph-name="asciicircum" unicode="^" horiz-adv-x="464" 
d="M63 588q-16 0 -16 14q0 8 8 15l103 108q10 11 17.5 14.5t17.5 3.5h79q9 0 17 -3.5t18 -14.5l102 -108q8 -7 8 -15q0 -14 -15 -14h-48q-8 0 -17 1t-17 6l-88 48l-87 -48q-8 -5 -17 -6t-18 -1h-47z" />
    <glyph glyph-name="underscore" unicode="_" horiz-adv-x="736" 
d="M71 -72q-11 0 -18 7.5t-7 17.5v94q0 11 7 18.5t18 7.5h594q10 0 17.5 -7.5t7.5 -18.5v-94q0 -10 -7.5 -17.5t-17.5 -7.5h-594z" />
    <glyph glyph-name="grave" unicode="`" horiz-adv-x="398" 
d="M235 595q-14 0 -22 3.5t-16 10.5l-133 109q-5 5 -5 13q0 19 19 19h132q13 0 20 -3.5t17 -15.5l88 -107q5 -5 5 -13q0 -16 -16 -16h-89z" />
    <glyph glyph-name="a" unicode="a" horiz-adv-x="590" 
d="M215 -10q-54 0 -96.5 20.5t-67.5 55.5t-25 79q0 71 58 112.5t154 56.5l125 19v14q0 36 -15 55t-55 19q-28 0 -45.5 -11t-27.5 -30q-9 -13 -25 -13h-112q-11 0 -17 6.5t-5 15.5q0 18 13.5 41.5t41.5 46.5t72 38t107 15q64 0 110 -15t75 -42t42.5 -63.5t13.5 -80.5v-304
q0 -10 -7.5 -17.5t-17.5 -7.5h-116q-11 0 -18 7.5t-7 17.5v35q-13 -19 -35 -35t-51.5 -25.5t-68.5 -9.5zM262 104q29 0 52.5 12.5t37 39t13.5 66.5v14l-85 -15q-47 -8 -68.5 -24.5t-21.5 -38.5q0 -17 10 -29t26.5 -18.5t35.5 -6.5z" />
    <glyph glyph-name="b" unicode="b" horiz-adv-x="631" 
d="M377 -10q-55 0 -93 19t-62 48v-32q0 -10 -7.5 -17.5t-17.5 -7.5h-113q-11 0 -18 7.5t-7 17.5v660q0 11 7 18t18 7h122q11 0 18 -7t7 -18v-214q25 26 61 42.5t85 16.5q50 0 88.5 -16.5t65.5 -47t42 -74t17 -96.5q1 -20 1 -35.5t-1 -35.5q-2 -56 -17 -99.5t-42.5 -74
t-65.5 -46t-88 -15.5zM323 124q34 0 53 14t27.5 38t10.5 53q2 31 0 62q-2 29 -10.5 53t-27.5 38t-53 14q-31 0 -51 -13.5t-30 -35t-11 -46.5q-1 -19 -1 -37t1 -38q2 -27 11 -50t29 -37.5t52 -14.5z" />
    <glyph glyph-name="c" unicode="c" horiz-adv-x="590" 
d="M298 -10q-74 0 -131 27t-90.5 78.5t-36.5 123.5q-1 16 -1 40.5t1 40.5q3 73 36 124.5t90.5 78.5t131.5 27q69 0 118.5 -19.5t80 -48.5t46 -59.5t16.5 -53.5q1 -10 -7 -17.5t-18 -7.5h-127q-11 0 -17 5t-11 15q-12 31 -30.5 44t-47.5 13q-40 0 -61.5 -26t-23.5 -80
q-1 -40 0 -71q3 -55 24 -80t61 -25q31 0 49 13.5t29 43.5q5 10 11 15t17 5h127q10 0 18 -7t7 -18q-1 -16 -10 -39t-28 -48t-49.5 -46t-73.5 -34.5t-100 -13.5z" />
    <glyph glyph-name="d" unicode="d" horiz-adv-x="631" 
d="M253 -10q-48 0 -86.5 15.5t-66 46t-42.5 74t-17 99.5q-1 20 -1 35.5t1 35.5q2 53 17 96.5t42 74t66 47t87 16.5q50 0 86 -16.5t61 -42.5v214q0 11 7 18t18 7h122q10 0 17.5 -7t7.5 -18v-660q0 -10 -7.5 -17.5t-17.5 -7.5h-113q-11 0 -18 7.5t-7 17.5v32q-24 -29 -62 -48
t-94 -19zM308 124q33 0 52.5 14.5t29 37.5t10.5 50q1 20 1 38t-1 37q-1 25 -11 46.5t-30 35t-51 13.5q-33 0 -52.5 -14t-28 -38t-10.5 -53q-3 -31 0 -62q2 -29 10.5 -53t28 -38t52.5 -14z" />
    <glyph glyph-name="e" unicode="e" horiz-adv-x="594" 
d="M299 -10q-118 0 -188 64t-73 190v18v17q3 79 35.5 135.5t90 86t134.5 29.5q88 0 145.5 -35t86.5 -95t29 -137v-24q0 -11 -7 -18t-18 -7h-320v-3v-4q1 -29 10.5 -53t28 -38t45.5 -14q20 0 33.5 6.5t22.5 15t14 14.5q9 11 14.5 13.5t17.5 2.5h124q10 0 16.5 -6t5.5 -16
q-1 -17 -17 -41t-46.5 -47.5t-76.5 -38.5t-107 -15zM214 313h169v2q0 33 -9.5 56.5t-29 36.5t-46.5 13q-26 0 -45 -13t-29 -36.5t-10 -56.5v-2z" />
    <glyph glyph-name="f" unicode="f" horiz-adv-x="443" 
d="M143 0q-10 0 -17.5 7.5t-7.5 17.5v364h-76q-11 0 -18 7t-7 18v81q0 11 7 18t18 7h76v32q0 68 26.5 109.5t75.5 60t117 18.5h78q11 0 18 -7t7 -18v-81q0 -11 -7 -18t-18 -7h-70q-34 0 -47.5 -16t-13.5 -46v-27h121q11 0 18 -7t7 -18v-81q0 -11 -7 -18t-18 -7h-121v-364
q0 -10 -7 -17.5t-18 -7.5h-116z" />
    <glyph glyph-name="g" unicode="g" horiz-adv-x="634" 
d="M314 -220q-77 0 -127.5 20t-80 48t-42.5 55.5t-14 43.5q-1 11 7 18.5t19 7.5h127q10 0 16 -5t10 -16q6 -11 14 -22.5t23.5 -19.5t42.5 -8q30 0 50 9.5t30 31t10 57.5v67q-23 -25 -59 -40.5t-87 -15.5t-90 15t-65 45t-40.5 73t-17.5 99q-1 26 0 53q3 53 17 96.5t40.5 74
t65.5 47t90 16.5q54 0 92.5 -20.5t63.5 -51.5v37q0 10 7 17.5t18 7.5h115q11 0 18.5 -7.5t7.5 -17.5v-481q0 -76 -30.5 -128t-89 -79t-141.5 -27zM307 141q32 0 52 14t29.5 36t10.5 47q1 11 1 31t-1 30q-1 26 -10.5 48t-29.5 35.5t-52 13.5q-33 0 -52.5 -14t-28 -38
t-10.5 -53q-1 -22 0 -45q2 -29 10.5 -53t28 -38t52.5 -14z" />
    <glyph glyph-name="h" unicode="h" horiz-adv-x="650" 
d="M84 0q-11 0 -18 7.5t-7 17.5v660q0 11 7 18t18 7h128q11 0 18 -7t7 -18v-223q27 31 66.5 49.5t91.5 18.5q58 0 103.5 -26t71.5 -76t26 -124v-279q0 -10 -7 -17.5t-18 -7.5h-129q-10 0 -17.5 7.5t-7.5 17.5v273q0 47 -22.5 72.5t-65.5 25.5q-42 0 -67 -25.5t-25 -72.5
v-273q0 -10 -7 -17.5t-18 -7.5h-128z" />
    <glyph glyph-name="i" unicode="i" horiz-adv-x="286" 
d="M84 0q-11 0 -18 7.5t-7 17.5v470q0 11 7 18t18 7h118q11 0 18 -7t7 -18v-470q0 -10 -7 -17.5t-18 -7.5h-118zM83 595q-11 0 -18 7t-7 18v90q0 10 7 17.5t18 7.5h120q10 0 17.5 -7.5t7.5 -17.5v-90q0 -11 -7.5 -18t-17.5 -7h-120z" />
    <glyph glyph-name="j" unicode="j" horiz-adv-x="303" 
d="M-28 -190q-11 0 -18 7.5t-7 17.5v81q0 11 7 18t18 7h37q25 0 38 9.5t18 26t5 37.5v481q0 11 7.5 18t17.5 7h124q11 0 18 -7t7 -18v-485q0 -65 -25.5 -109.5t-73.5 -67.5t-117 -23h-56zM94 595q-10 0 -17.5 7t-7.5 18v90q0 10 7.5 17.5t17.5 7.5h126q10 0 17.5 -7.5
t7.5 -17.5v-90q0 -11 -7.5 -18t-17.5 -7h-126z" />
    <glyph glyph-name="k" unicode="k" horiz-adv-x="585" 
d="M84 0q-11 0 -18 7.5t-7 17.5v660q0 11 7 18t18 7h116q10 0 17.5 -7t7.5 -18v-335l139 153q6 7 13 12t20 5h134q9 0 15.5 -6.5t6.5 -15.5q0 -4 -1.5 -9t-6.5 -8l-180 -194l205 -249q8 -8 8 -15q0 -10 -6.5 -16.5t-16.5 -6.5h-137q-15 0 -22 5.5t-13 11.5l-158 190v-182
q0 -10 -7.5 -17.5t-17.5 -7.5h-116z" />
    <glyph glyph-name="l" unicode="l" horiz-adv-x="286" 
d="M84 0q-11 0 -18 7.5t-7 17.5v660q0 11 7 18t18 7h118q11 0 18 -7t7 -18v-660q0 -10 -7 -17.5t-18 -7.5h-118z" />
    <glyph glyph-name="m" unicode="m" horiz-adv-x="916" 
d="M84 0q-11 0 -18 7.5t-7 17.5v470q0 11 7 18t18 7h109q11 0 18 -7t7 -18v-34q20 27 56 47.5t85 21.5q116 3 159 -86q23 38 65.5 62t93.5 24q52 0 93.5 -23.5t66.5 -72t25 -125.5v-284q0 -10 -7 -17.5t-18 -7.5h-116q-11 0 -18.5 7.5t-7.5 17.5v277q0 35 -10 55.5t-27 29.5
t-39 9q-18 0 -35.5 -9t-28 -29.5t-10.5 -55.5v-277q0 -10 -7 -17.5t-18 -7.5h-116q-11 0 -18 7.5t-7 17.5v277q0 35 -11 55.5t-28 29.5t-37 9q-19 0 -36.5 -9t-28 -29.5t-10.5 -54.5v-278q0 -10 -7.5 -17.5t-17.5 -7.5h-119z" />
    <glyph glyph-name="n" unicode="n" horiz-adv-x="643" 
d="M84 0q-11 0 -18 7.5t-7 17.5v470q0 11 7 18t18 7h115q11 0 18.5 -7t7.5 -18v-38q25 31 67 52t99 21q58 0 102.5 -26t70 -76t25.5 -124v-279q0 -10 -7 -17.5t-18 -7.5h-126q-10 0 -17.5 7.5t-7.5 17.5v273q0 47 -22.5 72.5t-66.5 25.5q-41 0 -65.5 -25.5t-24.5 -72.5v-273
q0 -10 -7.5 -17.5t-17.5 -7.5h-125z" />
    <glyph glyph-name="o" unicode="o" horiz-adv-x="611" 
d="M305 -10q-84 0 -141.5 27t-88 77.5t-34.5 120.5q-1 20 -1 45.5t1 44.5q4 71 36 121t89.5 77t138.5 27q82 0 139.5 -27t89.5 -77t36 -121q1 -19 1 -44.5t-1 -45.5q-4 -70 -34.5 -120.5t-88 -77.5t-142.5 -27zM305 112q45 0 65.5 27t23.5 81q1 15 1 40t-1 40
q-3 53 -23.5 80.5t-65.5 27.5q-43 0 -64.5 -27.5t-23.5 -80.5q-1 -15 -1 -40t1 -40q2 -54 23.5 -81t64.5 -27z" />
    <glyph glyph-name="p" unicode="p" horiz-adv-x="631" 
d="M84 -190q-11 0 -18 7.5t-7 17.5v660q0 11 7 18t18 7h113q10 0 17.5 -7t7.5 -18v-36q24 30 62 50.5t93 20.5q50 0 88 -15.5t65.5 -45.5t42.5 -73t17 -99q1 -20 1 -37t-1 -37q-2 -54 -17 -97t-42 -73t-65.5 -46.5t-88.5 -16.5q-49 0 -85.5 17.5t-60.5 49.5v-222
q0 -10 -7 -17.5t-18 -7.5h-122zM323 124q34 0 53 14t27.5 38t10.5 53q2 31 0 62q-2 29 -10.5 53t-27.5 38t-53 14q-32 0 -52 -14.5t-29 -37.5t-11 -50q-1 -19 -1 -37t1 -38q1 -25 11 -46.5t30 -35t51 -13.5z" />
    <glyph glyph-name="q" unicode="q" horiz-adv-x="631" 
d="M425 -190q-11 0 -18 7.5t-7 17.5v222q-23 -32 -60 -49.5t-86 -17.5t-88 16.5t-66 46.5t-42 73t-17 97q-1 20 -1 37t1 37q3 56 18 99t42 73t65.5 45.5t87.5 15.5q56 0 94 -20.5t61 -50.5v36q0 11 7.5 18t17.5 7h113q11 0 18 -7t7 -18v-660q0 -10 -7 -17.5t-18 -7.5h-122z
M308 124q32 0 51.5 13.5t29.5 35t11 46.5q2 20 2 38t-2 37q-1 27 -10 50t-29 37.5t-53 14.5t-52.5 -14t-28 -38t-10.5 -53q-2 -31 0 -62q2 -29 10.5 -53t28 -38t52.5 -14z" />
    <glyph glyph-name="r" unicode="r" horiz-adv-x="454" 
d="M84 0q-11 0 -18 7.5t-7 17.5v470q0 10 7 17.5t18 7.5h115q11 0 18.5 -7.5t7.5 -17.5v-40q26 31 63.5 48t84.5 17h44q11 0 18 -7t7 -18v-103q0 -10 -7 -17.5t-18 -7.5h-97q-41 0 -63.5 -22.5t-22.5 -63.5v-256q0 -10 -7.5 -17.5t-18.5 -7.5h-124z" />
    <glyph glyph-name="s" unicode="s" horiz-adv-x="553" 
d="M273 -10q-65 0 -110.5 14.5t-74 35.5t-42.5 43.5t-15 39.5q-1 11 7 18t17 7h114q3 0 5.5 -1t5.5 -4q13 -7 26 -17.5t30 -18.5t41 -8q28 0 47 11.5t19 32.5q0 16 -9 26.5t-36.5 20.5t-82.5 20q-52 12 -91 31.5t-60 51t-21 76.5q0 40 26 77t76 60.5t124 23.5
q57 0 100 -13.5t72 -34.5t44 -43t16 -40q1 -10 -6 -17.5t-16 -7.5h-104q-4 0 -8 1.5t-7 3.5q-12 6 -24 16t-28 18t-40 8q-27 0 -42 -12t-15 -31q0 -13 8.5 -24t35 -20t82.5 -20q69 -11 110 -35.5t58.5 -57t17.5 -68.5q0 -48 -29 -85t-84.5 -57.5t-136.5 -20.5z" />
    <glyph glyph-name="t" unicode="t" horiz-adv-x="467" 
d="M325 0q-64 0 -110.5 20.5t-71.5 64t-25 112.5v192h-78q-11 0 -18.5 7t-7.5 18v81q0 11 7.5 18t18.5 7h78v165q0 11 7.5 18t17.5 7h116q11 0 18 -7t7 -18v-165h125q11 0 18.5 -7t7.5 -18v-81q0 -11 -7.5 -18t-18.5 -7h-125v-178q0 -34 13 -54t44 -20h77q11 0 18 -7t7 -18
v-87q0 -10 -7 -17.5t-18 -7.5h-93z" />
    <glyph glyph-name="u" unicode="u" horiz-adv-x="641" 
d="M250 -10q-57 0 -101.5 26t-69.5 76.5t-25 123.5v279q0 11 7 18t18 7h125q11 0 18.5 -7t7.5 -18v-273q0 -98 87 -98q41 0 65.5 25.5t24.5 72.5v273q0 11 7 18t18 7h125q11 0 18 -7t7 -18v-470q0 -10 -7 -17.5t-18 -7.5h-116q-10 0 -17.5 7.5t-7.5 17.5v38
q-26 -36 -67.5 -54.5t-98.5 -18.5z" />
    <glyph glyph-name="v" unicode="v" horiz-adv-x="595" 
d="M244 0q-15 0 -22 7.5t-12 17.5l-189 464q-2 4 -2 9q0 9 6.5 15.5t16.5 6.5h113q13 0 20 -7t9 -14l113 -307l114 307q2 7 9 14t20 7h113q9 0 16 -6.5t7 -15.5q0 -5 -2 -9l-189 -464q-4 -10 -11.5 -17.5t-23.5 -7.5h-106z" />
    <glyph glyph-name="w" unicode="w" horiz-adv-x="838" 
d="M204 0q-15 0 -22 7.5t-11 17.5l-144 463q-2 5 -2 10q0 9 7 15.5t16 6.5h103q13 0 20.5 -7t9.5 -14l84 -286l90 285q2 7 9.5 14.5t21.5 7.5h66q14 0 22 -7.5t9 -14.5l90 -285l84 286q2 7 9.5 14t20.5 7h103q9 0 16 -6.5t7 -15.5q0 -5 -2 -10l-144 -463q-3 -10 -10.5 -17.5
t-22.5 -7.5h-90q-14 0 -22 7.5t-11 17.5l-92 274l-92 -274q-3 -10 -11 -17.5t-22 -7.5h-90z" />
    <glyph glyph-name="x" unicode="x" horiz-adv-x="588" 
d="M38 0q-9 0 -15.5 6.5t-6.5 16.5q0 2 1 6.5t4 8.5l167 229l-152 215q-3 4 -4.5 8t-1.5 8q0 9 7 15.5t16 6.5h122q13 0 19.5 -6t9.5 -11l93 -128l92 127q4 5 10.5 11.5t19.5 6.5h117q9 0 15.5 -6.5t6.5 -15.5q0 -4 -1 -8t-4 -8l-156 -215l170 -229q3 -4 4 -8t1 -7
q0 -10 -6.5 -16.5t-15.5 -6.5h-128q-12 0 -18 5.5t-10 10.5l-101 137l-102 -137l-10 -10t-18 -6h-125z" />
    <glyph glyph-name="y" unicode="y" horiz-adv-x="597" 
d="M156 -190q-9 0 -15 6t-6 15q0 2 0.5 5.5t2.5 7.5l78 188l-192 454q-3 7 -3 12q2 9 8 15.5t15 6.5h114q13 0 19.5 -6.5t9.5 -14.5l114 -291l117 291q4 8 10.5 14.5t19.5 6.5h112q9 0 15.5 -6.5t6.5 -14.5q0 -5 -3 -13l-283 -655q-3 -8 -10 -14.5t-20 -6.5h-110z" />
    <glyph glyph-name="z" unicode="z" horiz-adv-x="553" 
d="M63 0q-10 0 -17.5 7.5t-7.5 17.5v78q0 11 4.5 19.5t11.5 14.5l234 254h-216q-11 0 -18.5 7t-7.5 18v79q0 11 7.5 18t18.5 7h402q10 0 17.5 -7t7.5 -18v-85q0 -9 -4 -16t-10 -14l-228 -251h237q11 0 18.5 -7t7.5 -18v-79q0 -10 -7.5 -17.5t-18.5 -7.5h-431z" />
    <glyph glyph-name="braceleft" unicode="{" horiz-adv-x="425" 
d="M374 -158q-59 0 -108 18t-85.5 54t-56 90t-19.5 127q0 41 -13.5 70t-41.5 44l-13 5q-27 15 -27 41v37q0 26 27 40l13 6q29 15 42 43.5t13 69.5q0 73 19.5 126.5t55.5 89.5t85 54t108 19h6q9 0 15.5 -6.5t6.5 -15.5v-91q0 -9 -6 -15t-14 -7h-4q-42 -3 -68 -20.5t-38 -53.5
t-12 -95q0 -63 -21 -105.5t-53 -57.5q22 -9 38.5 -33t26 -57.5t9.5 -72.5q0 -58 12 -94.5t38 -53.5t67 -21h5q8 -1 14 -7t6 -15v-91q0 -10 -6.5 -16t-15.5 -6h-5z" />
    <glyph glyph-name="bar" unicode="|" horiz-adv-x="265" 
d="M87 -208q-10 0 -17.5 7.5t-7.5 17.5v1054q0 11 7.5 18t17.5 7h90q11 0 18.5 -7t7.5 -18v-1054q0 -10 -7.5 -17.5t-18.5 -7.5h-90z" />
    <glyph glyph-name="braceright" unicode="}" horiz-adv-x="425" 
d="M52 776q59 -1 108 -18.5t85 -53.5t56 -90.5t20 -126.5q0 -42 13 -70.5t42 -43.5l12 -6q27 -14 27 -40v-37q0 -26 -27 -40l-13 -6q-28 -14 -41 -43t-13 -70q0 -73 -20 -127t-56 -89.5t-85 -54t-107 -18.5h-6q-10 0 -16 6t-6 16v91q0 9 6 15t14 7h3q42 3 68.5 20.5
t38.5 53.5t12 94q0 64 20.5 106.5t52.5 57.5q-21 10 -37.5 33.5t-26 56.5t-9.5 73q0 59 -12 94.5t-38 53.5t-67 21h-5q-8 1 -14 7t-6 15v91q0 9 6 15.5t16 6.5h5z" />
    <glyph glyph-name="asciitilde" unicode="~" horiz-adv-x="554" 
d="M80 214q-11 0 -15.5 7.5t-4.5 21.5v77q0 18 14.5 34t39 26t56.5 10q35 0 61.5 -6t49.5 -13.5t48 -13.5t57 -6q26 0 44.5 10.5t27.5 17.5l8 4t9 3q12 0 16 -7.5t4 -22.5v-76q0 -18 -14.5 -34t-39 -26t-56.5 -10q-34 0 -60.5 6t-49.5 13.5t-48 13.5t-58 6q-26 0 -44 -10.5
t-27 -17.5l-8 -4t-10 -3z" />
    <glyph glyph-name="uni00A0" unicode="&#xa0;" horiz-adv-x="213" 
 />
    <glyph glyph-name="exclamdown" unicode="&#xa1;" horiz-adv-x="284" 
d="M200 297q11 0 18 -7.5t7 -17.5v-429q0 -11 -7 -18t-18 -7h-115q-11 0 -18 7t-7 18v429q0 10 7 17.5t18 7.5h115zM204 518q11 0 18 -7.5t7 -17.5v-123q0 -11 -7 -18.5t-18 -7.5h-123q-10 0 -17.5 7.5t-7.5 18.5v123q0 10 7.5 17.5t17.5 7.5h123z" />
    <glyph glyph-name="cent" unicode="&#xa2;" horiz-adv-x="597" 
d="M246 -100q-11 0 -18 7.5t-7 17.5v74q-79 17 -127.5 73.5t-52.5 146.5q-1 16 -1 40.5t1 40.5q3 90 52 146.5t128 74.5v64q0 11 7 18t18 7h99q11 0 18 -7t7 -18v-63q51 -10 87 -31.5t58.5 -48t33 -51.5t11.5 -42q1 -10 -7 -17.5t-18 -7.5h-128q-10 0 -16 5t-11 15
q-12 31 -32 44t-49 13q-37 0 -58.5 -26t-23.5 -80q-1 -40 0 -71q2 -55 23.5 -80t58.5 -25q31 0 50.5 13.5t30.5 43.5q5 10 11 15t16 5h128q10 0 18 -7t7 -18q-1 -15 -11.5 -40t-32 -51.5t-57.5 -48.5t-89 -33v-73q0 -10 -7 -17.5t-18 -7.5h-99z" />
    <glyph glyph-name="sterling" unicode="&#xa3;" horiz-adv-x="721" 
d="M495 -8q-34 0 -61.5 7.5t-51.5 18t-45.5 21.5t-43 18t-43.5 7q-29 0 -43.5 -13.5t-22.5 -36.5q-2 -5 -5.5 -9.5t-11.5 -4.5h-105q-8 0 -13.5 5.5t-5.5 12.5q2 64 32 108.5t79 63.5q-1 21 -3.5 42t-6.5 42h-76q-10 0 -17.5 7.5t-7.5 18.5v76q0 10 7.5 17.5t17.5 7.5h49
q-1 11 -1.5 23.5t-0.5 25.5q0 83 31 141.5t92.5 89t150.5 30.5q85 0 148 -29t99 -81.5t37 -124.5q0 -9 -6.5 -15.5t-15.5 -6.5h-134q-12 0 -20.5 6.5t-13.5 19.5q-11 43 -33.5 65t-60.5 22q-46 0 -67 -31.5t-21 -86.5q0 -13 0.5 -25t1.5 -23h150q10 0 17.5 -7.5t7.5 -17.5
v-76q0 -11 -7.5 -18.5t-17.5 -7.5h-143q1 -21 3.5 -42t1.5 -44q25 -5 44 -14t36 -18t34.5 -15.5t38.5 -6.5q34 0 52 16.5t28 42.5q2 4 7 8.5t12 4.5h91q9 0 14 -5.5t5 -13.5q-1 -63 -27.5 -106.5t-67.5 -66t-87 -22.5z" />
    <glyph glyph-name="currency" unicode="&#xa4;" horiz-adv-x="613" 
d="M109 52l-51 51q-7 8 -7 18t7 17l46 45q-32 52 -32 117q0 64 32 117l-46 45q-7 7 -7 17.5t7 17.5l51 52q8 7 18.5 7t17.5 -7l45 -46q25 15 54.5 23.5t62.5 8.5q31 0 61 -8.5t55 -23.5l45 46q8 7 18 7t18 -7l51 -52q8 -7 8 -17.5t-8 -17.5l-45 -45q15 -26 23.5 -55.5
t8.5 -61.5t-8.5 -61.5t-23.5 -55.5l45 -45q8 -7 8 -17t-8 -18l-51 -51q-8 -7 -18 -7t-18 7l-45 45q-53 -32 -116 -32q-66 0 -117 32l-45 -45q-7 -7 -17.5 -7t-18.5 7zM307 188q31 0 56.5 15t40.5 40.5t15 56.5t-15 57t-40.5 41t-56.5 15q-32 0 -57.5 -15t-40.5 -41t-15 -57
t15 -56.5t40.5 -40.5t57.5 -15z" />
    <glyph glyph-name="yen" unicode="&#xa5;" horiz-adv-x="689" 
d="M279 0q-10 0 -17.5 7.5t-7.5 17.5v223l-223 420q-1 3 -2 5.5t-1 5.5q0 8 6.5 14.5t14.5 6.5h126q15 0 23.5 -7.5t11.5 -13.5l134 -247l135 247q3 6 11.5 13.5t23.5 7.5h125q9 0 15.5 -6.5t6.5 -14.5q0 -3 -1 -5.5t-2 -5.5l-224 -420v-223q0 -10 -7 -17.5t-18 -7.5h-130z
M126 67q-11 0 -18.5 7t-7.5 18v78q0 11 7.5 18.5t18.5 7.5h438q10 0 17.5 -7.5t7.5 -18.5v-78q0 -11 -7.5 -18t-17.5 -7h-438zM126 218q-11 0 -18.5 7.5t-7.5 17.5v79q0 10 7.5 17.5t18.5 7.5h438q10 0 17.5 -7.5t7.5 -17.5v-79q0 -10 -7.5 -17.5t-17.5 -7.5h-438z" />
    <glyph glyph-name="brokenbar" unicode="&#xa6;" horiz-adv-x="269" 
d="M90 475q-11 0 -18 7.5t-7 17.5v304q0 11 7 18t18 7h90q10 0 17.5 -7t7.5 -18v-304q0 -10 -7.5 -17.5t-17.5 -7.5h-90zM90 0q-11 0 -18 7.5t-7 17.5v304q0 11 7 18t18 7h90q10 0 17.5 -7t7.5 -18v-304q0 -10 -7.5 -17.5t-17.5 -7.5h-90z" />
    <glyph glyph-name="section" unicode="&#xa7;" horiz-adv-x="605" 
d="M294 -140q-57 0 -100.5 14.5t-73.5 37.5t-45 48.5t-16 47.5q-1 11 5.5 16.5t15.5 5.5h111q9 0 15 -4t11 -11q5 -10 13 -18.5t23 -14.5t39 -6q31 0 46 16.5t15 39.5q0 17 -8.5 30t-33.5 24.5t-78 23.5q-73 19 -117 45.5t-63 63.5t-19 89q0 43 19 76.5t52 58.5
q-10 16 -14.5 35.5t-4.5 42.5q0 50 25.5 93.5t76 69.5t123.5 26q77 0 128.5 -24.5t78.5 -58.5t28 -64q1 -10 -5.5 -16t-15.5 -6h-111q-10 0 -15.5 4.5t-11.5 11.5q-5 9 -13 17.5t-22.5 14t-38.5 5.5q-31 0 -46 -16.5t-15 -39.5q0 -17 8.5 -30t34 -24t77.5 -23
q74 -20 117.5 -46.5t62.5 -63.5t19 -89q0 -42 -19.5 -76t-51.5 -59q10 -17 14.5 -36t4.5 -42q0 -50 -25.5 -93t-75.5 -69.5t-124 -26.5zM377 206q20 7 31 19t11 29q0 18 -8 32t-28.5 25t-57.5 21q-32 10 -54.5 17t-42.5 14q-21 -5 -31.5 -18t-10.5 -29q0 -17 8 -30.5
t28.5 -25t59.5 -23.5q44 -13 95 -31z" />
    <glyph glyph-name="dieresis" unicode="&#xa8;" horiz-adv-x="459" 
d="M287 607q-10 0 -16.5 6t-6.5 17v91q0 10 6.5 16.5t16.5 6.5h92q10 0 16.5 -6.5t6.5 -16.5v-91q0 -11 -6.5 -17t-16.5 -6h-92zM80 607q-10 0 -16 6t-6 17v91q0 10 6 16.5t16 6.5h92q10 0 16.5 -6.5t6.5 -16.5v-91q0 -11 -6.5 -17t-16.5 -6h-92z" />
    <glyph glyph-name="copyright" unicode="&#xa9;" horiz-adv-x="808" 
d="M404 -10q-75 0 -140 28t-114.5 77.5t-77.5 114.5t-28 140t28 140t77.5 114.5t114.5 77.5t140 28t140 -28t114.5 -77.5t77.5 -114.5t28 -140t-28 -140t-77.5 -114.5t-114.5 -77.5t-140 -28zM404 70q58 0 107.5 22t87 60.5t59 89t21.5 108.5t-21.5 108.5t-59 89t-87 60.5
t-107.5 22t-107.5 -22t-87 -60.5t-59 -89t-21.5 -108.5t21.5 -108.5t59 -89t87 -60.5t107.5 -22zM404 158q-52 0 -89.5 20t-58 55t-22.5 81q0 7 -0.5 22t0 30t0.5 22q2 46 22.5 81t58 55t89.5 20q60 0 97.5 -19t56 -47t19.5 -55q1 -10 -5.5 -16t-16.5 -6h-66q-11 0 -16.5 7
t-8.5 14q-8 18 -21.5 26.5t-38.5 8.5q-24 0 -37.5 -11t-18 -27.5t-5.5 -33.5q0 -7 -0.5 -20.5t0 -27t0.5 -20.5q1 -16 5.5 -33t18 -28t37.5 -11q25 0 38.5 8.5t21.5 27.5q3 6 8.5 13t16.5 7h66q10 0 16.5 -6t5.5 -16q-1 -26 -19.5 -54.5t-56 -47.5t-97.5 -19z" />
    <glyph glyph-name="ordfeminine" unicode="&#xaa;" horiz-adv-x="357" 
d="M133 429q-44 0 -70.5 23t-26.5 56q0 39 30.5 61t82.5 31l57 9q0 7 -1.5 14t-7.5 11t-20 4q-13 0 -20 -4t-12.5 -8.5t-15.5 -4.5h-61q-6 0 -10.5 3.5t-3.5 10.5q1 12 15 28.5t41.5 29t69.5 12.5q62 0 94 -28t32 -81v-145q0 -7 -5 -12t-12 -5h-62q-8 0 -13 5t-5 12v11
q-9 -15 -30.5 -24t-45.5 -9zM158 497q25 0 36.5 14t11.5 39l-35 -7q-24 -5 -32 -12.5t-8 -16.5q0 -8 8 -12.5t19 -4.5z" />
    <glyph glyph-name="guillemotleft" unicode="&#xab;" horiz-adv-x="621" 
d="M544 67q-2 0 -7 1.5t-10 6.5l-206 200q-8 7 -11.5 14.5t-4.5 15.5v48q1 8 4.5 15.5t11.5 14.5l206 200q5 5 10 6.5t7 1.5q9 0 15.5 -6t6.5 -15v-95q0 -15 -4 -23t-14 -18l-107 -105l107 -105q10 -10 14 -18t4 -23v-95q0 -9 -6.5 -15t-15.5 -6zM270 67q-3 0 -8 1.5
t-10 6.5l-206 200q-8 7 -11.5 14.5t-3.5 15.5v48q0 8 3.5 15.5t11.5 14.5l206 200q5 5 10 6.5t8 1.5q9 0 15 -6t6 -15v-95q0 -15 -4 -23t-14 -18l-106 -105l106 -105q10 -10 14 -18t4 -23v-95q0 -9 -6 -15t-15 -6z" />
    <glyph glyph-name="logicalnot" unicode="&#xac;" horiz-adv-x="570" 
d="M404 134q-10 0 -17.5 7.5t-7.5 18.5v100h-299q-11 0 -18 7t-7 18v77q0 11 7 18.5t18 7.5h404q10 0 17.5 -7.5t7.5 -18.5v-202q0 -11 -7.5 -18.5t-17.5 -7.5h-80z" />
    <glyph glyph-name="uni00AD" unicode="&#xad;" horiz-adv-x="600" 
d="M82 228q-11 0 -18 7t-7 18v94q0 11 7 18t18 7h313q11 0 18.5 -7t7.5 -18v-94q0 -11 -7.5 -18t-18.5 -7h-313z" />
    <glyph glyph-name="registered" unicode="&#xae;" horiz-adv-x="808" 
d="M404 -10q-75 0 -140 28t-114.5 77.5t-77.5 114.5t-28 140t28 140t77.5 114.5t114.5 77.5t140 28t140 -28t114.5 -77.5t77.5 -114.5t28 -140t-28 -140t-77.5 -114.5t-114.5 -77.5t-140 -28zM404 70q58 0 107.5 22t87 60.5t59 89t21.5 108.5t-21.5 108.5t-59 89t-87 60.5
t-107.5 22t-107.5 -22t-87 -60.5t-59 -89t-21.5 -108.5t21.5 -108.5t59 -89t87 -60.5t107.5 -22zM280 168q-22 0 -22 22v322q0 22 22 22h139q38 0 72.5 -11.5t56.5 -38.5t22 -72q0 -40 -18 -65.5t-44 -37.5l54 -105q2 -3 3 -6t1 -8q0 -8 -5.5 -15t-16.5 -7h-58
q-11 0 -18 4.5t-11 14.5l-48 103h-47v-100q0 -22 -22 -22h-60zM362 373h56q25 0 35 12t10 27q0 17 -10 28.5t-35 11.5h-56v-79z" />
    <glyph glyph-name="macron" unicode="&#xaf;" horiz-adv-x="439" 
d="M80 605q-10 0 -16 6t-6 17v70q0 10 6 16.5t16 6.5h279q10 0 16.5 -6.5t6.5 -16.5v-70q0 -11 -6.5 -17t-16.5 -6h-279z" />
    <glyph glyph-name="degree" unicode="&#xb0;" horiz-adv-x="411" 
d="M205 373q-47 0 -86.5 22.5t-63 60.5t-23.5 86t23.5 86t63 60t86.5 22q48 0 87.5 -22t63 -60t23.5 -86t-23.5 -86t-63 -60.5t-87.5 -22.5zM205 466q34 0 55 21t21 55t-21 55t-55 21t-55 -21t-21 -55t21 -55t55 -21z" />
    <glyph glyph-name="plusminus" unicode="&#xb1;" horiz-adv-x="569" 
d="M244 189q-11 0 -18 7t-7 18v147h-144q-10 0 -17.5 7.5t-7.5 17.5v74q0 10 7.5 17.5t17.5 7.5h144v143q0 10 7 17.5t18 7.5h82q11 0 18 -7.5t7 -17.5v-143h142q11 0 18 -7.5t7 -17.5v-74q0 -10 -7 -17.5t-18 -7.5h-142v-147q0 -11 -7 -18t-18 -7h-82zM85 0
q-10 0 -17.5 7.5t-7.5 17.5v74q0 10 7.5 17.5t17.5 7.5h398q11 0 18 -7.5t7 -17.5v-74q0 -10 -7 -17.5t-18 -7.5h-398z" />
    <glyph glyph-name="uni00B2" unicode="&#xb2;" horiz-adv-x="356" 
d="M48 350q-22 0 -22 22v34q0 8 5 15.5t20 18.5q56 41 91.5 66.5t52 44.5t16.5 38q0 15 -8.5 24.5t-27.5 9.5q-15 0 -22.5 -5.5t-11.5 -11.5t-7 -11q-6 -11 -11 -14.5t-13 -3.5h-58q-19 0 -18 19q2 31 21 55.5t50.5 39t69.5 14.5q64 0 102 -31t38 -81q0 -31 -15 -56
t-43.5 -49t-70.5 -53h121q22 0 22 -22v-41q0 -22 -22 -22h-259z" />
    <glyph glyph-name="uni00B3" unicode="&#xb3;" horiz-adv-x="354" 
d="M172 345q-55 0 -87 15.5t-46.5 36.5t-16.5 39q-1 10 6 14.5t11 4.5h40q8 0 16.5 -2t16.5 -4t13 -7t14 -9t29 -4q23 0 36 8.5t13 22.5q0 18 -12.5 24t-34.5 6h-45q-10 0 -15.5 6t-5.5 15v24q0 8 3 12.5t8 9.5l58 55h-112q-22 0 -22 22v44q0 22 22 22h224q22 0 22 -22v-39
q0 -8 -2.5 -14.5t-11.5 -13.5l-63 -50q45 -8 70 -33t25 -70q0 -51 -42 -82t-111 -31z" />
    <glyph glyph-name="acute" unicode="&#xb4;" horiz-adv-x="398" 
d="M74 595q-16 0 -16 16q0 8 5 13l88 107q10 12 17 15.5t20 3.5h132q19 0 19 -20q0 -7 -5 -12l-133 -109q-8 -7 -16 -10.5t-22 -3.5h-89z" />
    <glyph glyph-name="uni00B5" unicode="&#xb5;" horiz-adv-x="657" 
d="M87 -199q-11 0 -18 7t-7 18v669q0 11 7 18t18 7h129q10 0 17.5 -7t7.5 -18v-273q0 -31 12.5 -53t33 -33.5t44.5 -11.5t44 11.5t32.5 33.5t12.5 53v273q0 11 7.5 18t17.5 7h126q10 0 17.5 -7t7.5 -18v-470q0 -10 -7.5 -17.5t-17.5 -7.5h-116q-11 0 -18 7.5t-7 17.5v38
q-16 -21 -37.5 -36t-52.5 -19q-31 -5 -54.5 0.5t-44.5 17.5v-200q0 -11 -7.5 -18t-17.5 -7h-129z" />
    <glyph glyph-name="paragraph" unicode="&#xb6;" horiz-adv-x="627" 
d="M241 -100q-11 0 -18 7.5t-7 17.5v396q-52 0 -95 25.5t-69 68.5t-26 96q0 52 26 95t69 68.5t95 25.5h318q11 0 18 -7t7 -18v-750q0 -10 -7 -17.5t-18 -7.5h-82q-10 0 -17.5 7.5t-7.5 17.5v660h-79v-660q0 -10 -7 -17.5t-18 -7.5h-82z" />
    <glyph glyph-name="periodcentered" unicode="&#xb7;" horiz-adv-x="330" 
d="M165 188q-34 0 -62.5 16.5t-45.5 45.5t-17 62q0 35 17 63.5t45.5 45.5t62.5 17q35 0 63 -17t45 -45.5t17 -63.5q0 -33 -17 -62t-45 -45.5t-63 -16.5z" />
    <glyph glyph-name="cedilla" unicode="&#xb8;" horiz-adv-x="296" 
d="M142 -220q-27 0 -49 9t-31 21t1 21l18 16q9 8 15.5 5.5t16.5 -8t29 -5.5q15 0 24 8.5t9 21.5q0 12 -9 20.5t-24 8.5q-12 0 -22 -3.5t-18.5 -4t-16.5 5.5l-19 20q-6 6 -5.5 13t6.5 19l35 79h64l-39 -77q6 3 16.5 4.5t16.5 1.5q36 0 57.5 -24t21.5 -63q0 -38 -26 -63.5
t-71 -25.5z" />
    <glyph glyph-name="uni00B9" unicode="&#xb9;" horiz-adv-x="294" 
d="M147 350q-22 0 -22 22v208l-51 -39q-7 -5 -16 -4t-15 9l-27 35q-6 8 -4.5 16.5t8.5 14.5l106 81q10 7 23 7h60q22 0 22 -22v-306q0 -22 -22 -22h-62z" />
    <glyph glyph-name="ordmasculine" unicode="&#xba;" horiz-adv-x="354" 
d="M177 429q-65 0 -100 29t-38 82q-1 8 -1 27.5t1 26.5q3 54 40 82.5t98 28.5q62 0 98.5 -28.5t39.5 -82.5q1 -7 1 -26.5t-1 -27.5q-3 -53 -37.5 -82t-100.5 -29zM177 502q19 0 27.5 9.5t9.5 33.5q1 8 1 22.5t-1 21.5q-1 22 -9.5 32.5t-27.5 10.5q-18 0 -26.5 -10.5
t-9.5 -32.5q-1 -7 -1 -21.5t1 -22.5q2 -24 10 -33.5t26 -9.5z" />
    <glyph glyph-name="guillemotright" unicode="&#xbb;" horiz-adv-x="621" 
d="M351 67q-9 0 -15 6t-6 15v95q0 15 4 23t14 18l107 105l-107 105q-10 10 -14 18t-4 23v95q0 9 6 15t15 6q3 0 8 -1.5t10 -6.5l206 -200q8 -7 11.5 -14.5t3.5 -15.5v-48q0 -8 -3.5 -15.5t-11.5 -14.5l-206 -200q-5 -5 -10 -6.5t-8 -1.5zM77 67q-9 0 -15 6t-6 15v95
q0 15 4 23t14 18l106 105l-106 105q-10 10 -14 18t-4 23v95q0 9 6 15t15 6q3 0 8 -1.5t10 -6.5l206 -200q7 -7 10.5 -14.5t4.5 -15.5v-48q-1 -8 -4.5 -15.5t-10.5 -14.5l-206 -200q-5 -5 -10 -6.5t-8 -1.5z" />
    <glyph glyph-name="onequarter" unicode="&#xbc;" horiz-adv-x="845" 
d="M147 350q-22 0 -22 22v208l-51 -39q-7 -5 -16 -4t-15 9l-27 35q-6 8 -4.5 16.5t8.5 14.5l106 81q10 7 23 7h60q22 0 22 -22v-306q0 -22 -22 -22h-62zM111 0q-23 0 -23 20q0 6 4 11l494 650q7 9 14 14t21 5h53q22 0 22 -20q0 -6 -4 -11l-494 -650q-7 -9 -13.5 -14
t-20.5 -5h-53zM686 0q-22 0 -22 22v35h-150q-22 0 -22 22v47q0 2 1.5 10t10.5 20l132 176q8 11 15.5 14.5t14.5 3.5h79q22 0 22 -22v-181h35q22 0 22 -22v-46q0 -22 -22 -22h-35v-35q0 -22 -22 -22h-59zM598 144h68v96z" />
    <glyph glyph-name="onehalf" unicode="&#xbd;" horiz-adv-x="829" 
d="M147 350q-22 0 -22 22v208l-51 -39q-7 -5 -16 -4t-15 9l-27 35q-6 8 -4.5 16.5t8.5 14.5l106 81q10 7 23 7h60q22 0 22 -22v-306q0 -22 -22 -22h-62zM111 0q-23 0 -23 20q0 6 4 11l494 650q7 9 14 14t21 5h53q22 0 22 -20q0 -6 -4 -11l-494 -650q-7 -9 -13.5 -14
t-20.5 -5h-53zM520 0q-22 0 -22 22v34q0 8 5 15.5t20 18.5q56 41 91.5 66.5t52 44.5t16.5 38q0 15 -8.5 24.5t-27.5 9.5q-15 0 -22.5 -5.5t-11.5 -11.5t-7 -11q-6 -11 -11 -14.5t-13 -3.5h-58q-19 0 -18 19q2 31 21 55.5t50.5 39t69.5 14.5q64 0 102 -31t38 -81
q0 -31 -15 -56t-43.5 -49t-70.5 -53h121q22 0 22 -22v-41q0 -22 -22 -22h-259z" />
    <glyph glyph-name="threequarters" unicode="&#xbe;" horiz-adv-x="906" 
d="M172 345q-55 0 -87 15.5t-46.5 36.5t-16.5 39q-1 10 6 14.5t11 4.5h40q8 0 16.5 -2t16.5 -4t13 -7t14 -9t29 -4q23 0 36 8.5t13 22.5q0 18 -12.5 24t-34.5 6h-45q-10 0 -15.5 6t-5.5 15v24q0 8 3 12.5t8 9.5l58 55h-112q-22 0 -22 22v44q0 22 22 22h224q22 0 22 -22v-39
q0 -8 -2.5 -14.5t-11.5 -13.5l-63 -50q45 -8 70 -33t25 -70q0 -51 -42 -82t-111 -31zM171 0q-23 0 -23 20q0 6 4 11l494 650q7 9 14 14t21 5h53q22 0 22 -20q0 -6 -4 -11l-494 -650q-7 -9 -13.5 -14t-20.5 -5h-53zM747 0q-22 0 -22 22v35h-150q-22 0 -22 22v47q0 2 1.5 10
t10.5 20l132 176q8 11 15.5 14.5t14.5 3.5h79q22 0 22 -22v-181h35q22 0 22 -22v-46q0 -22 -22 -22h-35v-35q0 -22 -22 -22h-59zM659 144h68v96z" />
    <glyph glyph-name="questiondown" unicode="&#xbf;" horiz-adv-x="592" 
d="M360 307q9 0 14.5 -5.5t5.5 -13.5v-12t-1 -11q-5 -35 -22.5 -63.5t-41 -52.5t-45.5 -45.5t-37.5 -41.5t-16.5 -41q-2 -21 8.5 -36.5t29 -24t39.5 -8.5q40 0 63 19.5t32 56.5q4 11 11.5 17.5t20.5 6.5h122q10 0 17 -7.5t7 -19.5q-1 -40 -19.5 -78t-54.5 -69.5t-88.5 -50
t-122.5 -18.5q-75 0 -124.5 18t-78 47t-40.5 61.5t-11 60.5q1 36 14.5 65t33 53t41 47t39.5 45.5t27 47.5q2 7 4 13.5t3 13.5q7 13 13 19.5t18 6.5h140zM358 519q11 0 18 -7.5t7 -17.5v-114q0 -11 -7 -18t-18 -7h-128q-11 0 -18.5 7t-7.5 18v114q0 10 7.5 17.5t18.5 7.5h128
z" />
    <glyph glyph-name="Agrave" unicode="&#xc0;" horiz-adv-x="716" 
d="M30 0q-8 0 -14.5 6.5t-6.5 14.5q0 5 1 9l235 642q3 11 12.5 19.5t26.5 8.5h148q17 0 26.5 -8.5t12.5 -19.5l234 -642q2 -4 2 -9q0 -8 -6.5 -14.5t-15.5 -6.5h-123q-15 0 -22.5 7.5t-9.5 13.5l-39 102h-267l-38 -102q-2 -6 -9 -13.5t-24 -7.5h-123zM265 267h186l-93 264z
M327 750q-14 0 -22 3.5t-16 10.5l-133 109q-5 5 -5 12q0 20 19 20h140q12 0 19.5 -3.5t17.5 -15.5l88 -107q5 -5 5 -13q0 -16 -16 -16h-97z" />
    <glyph glyph-name="Aacute" unicode="&#xc1;" horiz-adv-x="716" 
d="M30 0q-8 0 -14.5 6.5t-6.5 14.5q0 5 1 9l235 642q3 11 12.5 19.5t26.5 8.5h148q17 0 26.5 -8.5t12.5 -19.5l234 -642q2 -4 2 -9q0 -8 -6.5 -14.5t-15.5 -6.5h-123q-15 0 -22.5 7.5t-9.5 13.5l-39 102h-267l-38 -102q-2 -6 -9 -13.5t-24 -7.5h-123zM265 267h186l-93 264z
M296 750q-16 0 -16 16q0 8 5 13l88 107q10 12 17 15.5t20 3.5h140q19 0 19 -20q0 -7 -5 -12l-133 -109q-8 -7 -16 -10.5t-22 -3.5h-97z" />
    <glyph glyph-name="Acircumflex" unicode="&#xc2;" horiz-adv-x="716" 
d="M30 0q-8 0 -14.5 6.5t-6.5 14.5q0 5 1 9l235 642q3 11 12.5 19.5t26.5 8.5h148q17 0 26.5 -8.5t12.5 -19.5l234 -642q2 -4 2 -9q0 -8 -6.5 -14.5t-15.5 -6.5h-123q-15 0 -22.5 7.5t-9.5 13.5l-39 102h-267l-38 -102q-2 -6 -9 -13.5t-24 -7.5h-123zM265 267h186l-93 264z
M186 750q-16 0 -16 14q0 8 8 16l103 108q10 11 17.5 14t17.5 3h85q10 0 17.5 -3t17.5 -14l102 -108q8 -8 8 -16q0 -14 -15 -14h-51q-8 0 -17 1.5t-17 5.5l-88 49l-87 -49q-8 -4 -17 -5.5t-18 -1.5h-50z" />
    <glyph glyph-name="Atilde" unicode="&#xc3;" horiz-adv-x="716" 
d="M30 0q-8 0 -14.5 6.5t-6.5 14.5q0 5 1 9l235 642q3 11 12.5 19.5t26.5 8.5h148q17 0 26.5 -8.5t12.5 -19.5l234 -642q2 -4 2 -9q0 -8 -6.5 -14.5t-15.5 -6.5h-123q-15 0 -22.5 7.5t-9.5 13.5l-39 102h-267l-38 -102q-2 -6 -9 -13.5t-24 -7.5h-123zM265 267h186l-93 264z
M418 745q-27 0 -45 9t-32.5 17.5t-32.5 8.5q-13 0 -19.5 -7t-11.5 -15t-16 -8h-60q-7 0 -12 5.5t-5 11.5q0 16 5.5 38t19 42.5t35 34t52.5 13.5q28 0 46 -9t33 -18t32 -9q14 0 19.5 8t10.5 15.5t16 7.5h60q9 0 13.5 -5.5t4.5 -12.5q0 -16 -6 -37.5t-19 -42t-35 -34
t-53 -13.5z" />
    <glyph glyph-name="Adieresis" unicode="&#xc4;" horiz-adv-x="716" 
d="M30 0q-8 0 -14.5 6.5t-6.5 14.5q0 5 1 9l235 642q3 11 12.5 19.5t26.5 8.5h148q17 0 26.5 -8.5t12.5 -19.5l234 -642q2 -4 2 -9q0 -8 -6.5 -14.5t-15.5 -6.5h-123q-15 0 -22.5 7.5t-9.5 13.5l-39 102h-267l-38 -102q-2 -6 -9 -13.5t-24 -7.5h-123zM265 267h186l-93 264z
M430 750q-10 0 -16.5 6t-6.5 17v91q0 10 6.5 16.5t16.5 6.5h92q10 0 16.5 -6.5t6.5 -16.5v-91q0 -11 -6.5 -17t-16.5 -6h-92zM193 750q-10 0 -16 6t-6 17v91q0 10 6 16.5t16 6.5h92q10 0 16.5 -6.5t6.5 -16.5v-91q0 -11 -6.5 -17t-16.5 -6h-92z" />
    <glyph glyph-name="Aring" unicode="&#xc5;" horiz-adv-x="716" 
d="M30 0q-8 0 -14.5 6.5t-6.5 14.5q0 5 1 9l235 642q3 11 12.5 19.5t26.5 8.5h148q17 0 26.5 -8.5t12.5 -19.5l234 -642q2 -4 2 -9q0 -8 -6.5 -14.5t-15.5 -6.5h-123q-15 0 -22.5 7.5t-9.5 13.5l-39 102h-267l-38 -102q-2 -6 -9 -13.5t-24 -7.5h-123zM265 267h186l-93 264z
M358 740q-38 0 -65 25t-27 63t27 62.5t65 24.5t65.5 -24.5t27.5 -62.5t-27.5 -63t-65.5 -25zM358 798q13 0 21.5 8.5t8.5 21.5t-8.5 21.5t-21.5 8.5t-21.5 -8.5t-8.5 -21.5t8.5 -21.5t21.5 -8.5z" />
    <glyph glyph-name="AE" unicode="&#xc6;" horiz-adv-x="973" 
d="M26 0q-9 0 -15.5 6.5t-6.5 14.5q0 5 3 10q11 33 23.5 68t28 75t36 88.5t47 108.5t62 134.5t79.5 166.5q4 11 13.5 19.5t24.5 8.5h575q11 0 18 -7t7 -18v-94q0 -11 -7 -18t-18 -7h-300v-135h278q11 0 18 -7.5t7 -18.5v-87q0 -10 -7 -17.5t-18 -7.5h-278v-139h308
q11 0 18 -7t7 -18v-94q0 -10 -7 -17.5t-18 -7.5h-456q-11 0 -18 7.5t-7 17.5v98h-192q-14 -28 -23 -45.5t-13.5 -28t-7.5 -17t-4 -11.5q-4 -7 -11 -14t-22 -7h-124zM276 267h147v286h-21z" />
    <glyph glyph-name="Ccedilla" unicode="&#xc7;" horiz-adv-x="702" 
d="M352 -220q-27 0 -49 9t-31 21t1 21l18 16q9 8 15.5 5.5t16.5 -8t29 -5.5q15 0 24 8.5t9 21.5q0 12 -8.5 20.5t-24.5 8.5q-12 0 -22 -3.5t-18.5 -4t-15.5 5.5l-20 20q-6 6 -5 13t6 19l20 46q-76 9 -130.5 42t-84.5 89.5t-34 135.5q-1 41 -1 88t1 90q4 87 42 148t106 92
t161 31q66 0 122 -16.5t98 -48t65.5 -76t24.5 -100.5q1 -9 -5.5 -15t-15.5 -6h-135q-13 0 -20 5.5t-12 20.5q-14 53 -45.5 72.5t-77.5 19.5q-55 0 -87 -30.5t-35 -101.5q-3 -82 0 -168q3 -71 35 -101.5t87 -30.5q46 0 78 20t45 72q4 15 11.5 20.5t20.5 5.5h135q9 0 15.5 -6
t5.5 -15q-1 -56 -24.5 -100.5t-65.5 -76t-98 -48t-122 -16.5l-20 -40q6 3 16.5 4.5t16.5 1.5q36 0 57.5 -24t21.5 -63q0 -38 -25.5 -63.5t-71.5 -25.5z" />
    <glyph glyph-name="Egrave" unicode="&#xc8;" horiz-adv-x="639" 
d="M95 0q-11 0 -18 7.5t-7 17.5v650q0 11 7 18t18 7h467q11 0 18 -7t7 -18v-94q0 -11 -7 -18t-18 -7h-319v-135h297q11 0 18 -7.5t7 -18.5v-87q0 -10 -7 -17.5t-18 -7.5h-297v-139h327q11 0 18 -7t7 -18v-94q0 -10 -7 -17.5t-18 -7.5h-475zM288 750q-14 0 -22 3.5t-16 10.5
l-133 109q-5 5 -5 12q0 20 19 20h140q12 0 19.5 -3.5t17.5 -15.5l88 -107q5 -5 5 -13q0 -16 -16 -16h-97z" />
    <glyph glyph-name="Eacute" unicode="&#xc9;" horiz-adv-x="639" 
d="M95 0q-11 0 -18 7.5t-7 17.5v650q0 11 7 18t18 7h467q11 0 18 -7t7 -18v-94q0 -11 -7 -18t-18 -7h-319v-135h297q11 0 18 -7.5t7 -18.5v-87q0 -10 -7 -17.5t-18 -7.5h-297v-139h327q11 0 18 -7t7 -18v-94q0 -10 -7 -17.5t-18 -7.5h-475zM258 750q-16 0 -16 16q0 8 5 13
l88 107q10 12 17 15.5t20 3.5h140q19 0 19 -20q0 -7 -5 -12l-133 -109q-8 -7 -16 -10.5t-22 -3.5h-97z" />
    <glyph glyph-name="Ecircumflex" unicode="&#xca;" horiz-adv-x="639" 
d="M95 0q-11 0 -18 7.5t-7 17.5v650q0 11 7 18t18 7h467q11 0 18 -7t7 -18v-94q0 -11 -7 -18t-18 -7h-319v-135h297q11 0 18 -7.5t7 -18.5v-87q0 -10 -7 -17.5t-18 -7.5h-297v-139h327q11 0 18 -7t7 -18v-94q0 -10 -7 -17.5t-18 -7.5h-475zM148 750q-16 0 -16 14q0 8 8 16
l103 108q10 11 17.5 14t17.5 3h85q10 0 17.5 -3t17.5 -14l102 -108q8 -8 8 -16q0 -14 -15 -14h-51q-8 0 -17 1.5t-17 5.5l-88 49l-87 -49q-8 -4 -17 -5.5t-18 -1.5h-50z" />
    <glyph glyph-name="Edieresis" unicode="&#xcb;" horiz-adv-x="639" 
d="M95 0q-11 0 -18 7.5t-7 17.5v650q0 11 7 18t18 7h467q11 0 18 -7t7 -18v-94q0 -11 -7 -18t-18 -7h-319v-135h297q11 0 18 -7.5t7 -18.5v-87q0 -10 -7 -17.5t-18 -7.5h-297v-139h327q11 0 18 -7t7 -18v-94q0 -10 -7 -17.5t-18 -7.5h-475zM392 750q-10 0 -16.5 6t-6.5 17
v91q0 10 6.5 16.5t16.5 6.5h92q10 0 16.5 -6.5t6.5 -16.5v-91q0 -11 -6.5 -17t-16.5 -6h-92zM155 750q-10 0 -16 6t-6 17v91q0 10 6 16.5t16 6.5h92q10 0 16.5 -6.5t6.5 -16.5v-91q0 -11 -6.5 -17t-16.5 -6h-92z" />
    <glyph glyph-name="Igrave" unicode="&#xcc;" horiz-adv-x="324" 
d="M95 0q-11 0 -18 7.5t-7 17.5v650q0 11 7 18t18 7h134q11 0 18.5 -7t7.5 -18v-650q0 -10 -7.5 -17.5t-18.5 -7.5h-134zM131 750q-14 0 -22 3.5t-16 10.5l-133 109q-5 5 -5 12q0 20 19 20h140q12 0 19.5 -3.5t17.5 -15.5l88 -107q5 -5 5 -13q0 -16 -16 -16h-97z" />
    <glyph glyph-name="Iacute" unicode="&#xcd;" horiz-adv-x="324" 
d="M95 0q-11 0 -18 7.5t-7 17.5v650q0 11 7 18t18 7h134q11 0 18.5 -7t7.5 -18v-650q0 -10 -7.5 -17.5t-18.5 -7.5h-134zM100 750q-16 0 -16 16q0 8 5 13l88 107q10 12 17 15.5t20 3.5h140q19 0 19 -20q0 -7 -5 -12l-133 -109q-8 -7 -16 -10.5t-22 -3.5h-97z" />
    <glyph glyph-name="Icircumflex" unicode="&#xce;" horiz-adv-x="324" 
d="M95 0q-11 0 -18 7.5t-7 17.5v650q0 11 7 18t18 7h134q11 0 18.5 -7t7.5 -18v-650q0 -10 -7.5 -17.5t-18.5 -7.5h-134zM-10 750q-16 0 -16 14q0 8 8 16l103 108q10 11 17.5 14t17.5 3h85q10 0 17.5 -3t17.5 -14l102 -108q8 -8 8 -16q0 -14 -15 -14h-51q-8 0 -17 1.5
t-17 5.5l-88 49l-87 -49q-8 -4 -17 -5.5t-18 -1.5h-50z" />
    <glyph glyph-name="Idieresis" unicode="&#xcf;" horiz-adv-x="324" 
d="M95 0q-11 0 -18 7.5t-7 17.5v650q0 11 7 18t18 7h134q11 0 18.5 -7t7.5 -18v-650q0 -10 -7.5 -17.5t-18.5 -7.5h-134zM234 750q-10 0 -16.5 6t-6.5 17v91q0 10 6.5 16.5t16.5 6.5h92q10 0 16.5 -6.5t6.5 -16.5v-91q0 -11 -6.5 -17t-16.5 -6h-92zM-3 750q-10 0 -16 6
t-6 17v91q0 10 6 16.5t16 6.5h92q10 0 16.5 -6.5t6.5 -16.5v-91q0 -11 -6.5 -17t-16.5 -6h-92z" />
    <glyph glyph-name="Eth" unicode="&#xd0;" horiz-adv-x="735" 
d="M112 0q-11 0 -18 7.5t-7 17.5v267h-47q-11 0 -18.5 7.5t-7.5 17.5v69q0 11 7.5 18t18.5 7h47v264q0 11 7 18t18 7h260q98 0 168 -31.5t107.5 -92t38.5 -149.5v-76v-77q-1 -93 -37.5 -154t-106 -90.5t-168.5 -29.5h-262zM267 144h105q44 0 71.5 13.5t41.5 42.5t14 76
q1 27 1 50.5v47.5t-1 51q0 68 -31.5 99.5t-97.5 31.5h-103v-145h91q11 0 18 -7t7 -18v-69q0 -10 -7 -17.5t-18 -7.5h-91v-148z" />
    <glyph glyph-name="Ntilde" unicode="&#xd1;" horiz-adv-x="719" 
d="M95 0q-11 0 -18 7.5t-7 17.5v650q0 11 7 18t18 7h106q17 0 24.5 -7.5t9.5 -11.5l244 -384v378q0 11 7 18t18 7h120q11 0 18 -7t7 -18v-649q0 -11 -7 -18.5t-18 -7.5h-107q-16 0 -23.5 8t-9.5 11l-244 370v-364q0 -10 -7 -17.5t-18 -7.5h-120zM420 745q-27 0 -45 9
t-32.5 17.5t-32.5 8.5q-13 0 -19.5 -7t-11.5 -15t-16 -8h-60q-7 0 -12 5.5t-5 11.5q0 16 5.5 38t19 42.5t35 34t52.5 13.5q28 0 46 -9t33 -18t32 -9q14 0 19.5 8t10.5 15.5t16 7.5h60q9 0 13.5 -5.5t4.5 -12.5q0 -16 -6 -37.5t-19 -42t-35 -34t-53 -13.5z" />
    <glyph glyph-name="Ograve" unicode="&#xd2;" horiz-adv-x="712" 
d="M356 -10q-92 0 -160 30t-106 90.5t-42 151.5q-1 43 -1 86.5t1 86.5q4 90 42.5 151.5t107 92.5t158.5 31q91 0 159 -31t107 -92.5t42 -151.5q2 -43 2 -86.5t-2 -86.5q-3 -91 -41.5 -151.5t-106.5 -90.5t-160 -30zM356 134q53 0 86.5 32t35.5 102q2 44 2 83t-2 81
q-2 47 -17.5 76.5t-42.5 43.5t-62 14q-34 0 -61 -14t-43 -43.5t-18 -76.5q-1 -42 -1 -81t1 -83q3 -70 36.5 -102t85.5 -32zM325 750q-14 0 -22 3.5t-16 10.5l-133 109q-5 5 -5 12q0 20 19 20h140q12 0 19.5 -3.5t17.5 -15.5l88 -107q5 -5 5 -13q0 -16 -16 -16h-97z" />
    <glyph glyph-name="Oacute" unicode="&#xd3;" horiz-adv-x="712" 
d="M356 -10q-92 0 -160 30t-106 90.5t-42 151.5q-1 43 -1 86.5t1 86.5q4 90 42.5 151.5t107 92.5t158.5 31q91 0 159 -31t107 -92.5t42 -151.5q2 -43 2 -86.5t-2 -86.5q-3 -91 -41.5 -151.5t-106.5 -90.5t-160 -30zM356 134q53 0 86.5 32t35.5 102q2 44 2 83t-2 81
q-2 47 -17.5 76.5t-42.5 43.5t-62 14q-34 0 -61 -14t-43 -43.5t-18 -76.5q-1 -42 -1 -81t1 -83q3 -70 36.5 -102t85.5 -32zM294 750q-16 0 -16 16q0 8 5 13l88 107q10 12 17 15.5t20 3.5h140q19 0 19 -20q0 -7 -5 -12l-133 -109q-8 -7 -16 -10.5t-22 -3.5h-97z" />
    <glyph glyph-name="Ocircumflex" unicode="&#xd4;" horiz-adv-x="712" 
d="M356 -10q-92 0 -160 30t-106 90.5t-42 151.5q-1 43 -1 86.5t1 86.5q4 90 42.5 151.5t107 92.5t158.5 31q91 0 159 -31t107 -92.5t42 -151.5q2 -43 2 -86.5t-2 -86.5q-3 -91 -41.5 -151.5t-106.5 -90.5t-160 -30zM356 134q53 0 86.5 32t35.5 102q2 44 2 83t-2 81
q-2 47 -17.5 76.5t-42.5 43.5t-62 14q-34 0 -61 -14t-43 -43.5t-18 -76.5q-1 -42 -1 -81t1 -83q3 -70 36.5 -102t85.5 -32zM184 750q-16 0 -16 14q0 8 8 16l103 108q10 11 17.5 14t17.5 3h85q10 0 17.5 -3t17.5 -14l102 -108q8 -8 8 -16q0 -14 -15 -14h-51q-8 0 -17 1.5
t-17 5.5l-88 49l-87 -49q-8 -4 -17 -5.5t-18 -1.5h-50z" />
    <glyph glyph-name="Otilde" unicode="&#xd5;" horiz-adv-x="712" 
d="M356 -10q-92 0 -160 30t-106 90.5t-42 151.5q-1 43 -1 86.5t1 86.5q4 90 42.5 151.5t107 92.5t158.5 31q91 0 159 -31t107 -92.5t42 -151.5q2 -43 2 -86.5t-2 -86.5q-3 -91 -41.5 -151.5t-106.5 -90.5t-160 -30zM356 134q53 0 86.5 32t35.5 102q2 44 2 83t-2 81
q-2 47 -17.5 76.5t-42.5 43.5t-62 14q-34 0 -61 -14t-43 -43.5t-18 -76.5q-1 -42 -1 -81t1 -83q3 -70 36.5 -102t85.5 -32zM416 745q-27 0 -45 9t-32.5 17.5t-32.5 8.5q-13 0 -19.5 -7t-11.5 -15t-16 -8h-60q-7 0 -12 5.5t-5 11.5q0 16 5.5 38t19 42.5t35 34t52.5 13.5
q28 0 46 -9t33 -18t32 -9q14 0 19.5 8t10.5 15.5t16 7.5h60q9 0 13.5 -5.5t4.5 -12.5q0 -16 -6 -37.5t-19 -42t-35 -34t-53 -13.5z" />
    <glyph glyph-name="Odieresis" unicode="&#xd6;" horiz-adv-x="712" 
d="M356 -10q-92 0 -160 30t-106 90.5t-42 151.5q-1 43 -1 86.5t1 86.5q4 90 42.5 151.5t107 92.5t158.5 31q91 0 159 -31t107 -92.5t42 -151.5q2 -43 2 -86.5t-2 -86.5q-3 -91 -41.5 -151.5t-106.5 -90.5t-160 -30zM356 134q53 0 86.5 32t35.5 102q2 44 2 83t-2 81
q-2 47 -17.5 76.5t-42.5 43.5t-62 14q-34 0 -61 -14t-43 -43.5t-18 -76.5q-1 -42 -1 -81t1 -83q3 -70 36.5 -102t85.5 -32zM428 750q-10 0 -16.5 6t-6.5 17v91q0 10 6.5 16.5t16.5 6.5h92q10 0 16.5 -6.5t6.5 -16.5v-91q0 -11 -6.5 -17t-16.5 -6h-92zM191 750q-10 0 -16 6
t-6 17v91q0 10 6 16.5t16 6.5h92q10 0 16.5 -6.5t6.5 -16.5v-91q0 -11 -6.5 -17t-16.5 -6h-92z" />
    <glyph glyph-name="multiply" unicode="&#xd7;" horiz-adv-x="602" 
d="M133 51l-80 79q-7 8 -7 18t7 18l133 133l-133 133q-7 8 -7 18t7 17l80 80q8 8 18 8t17 -8l133 -133l133 132q8 8 18 8t17 -8l80 -79q8 -7 8 -17.5t-8 -18.5l-133 -132l133 -133q8 -7 8 -17t-8 -18l-80 -80q-7 -7 -17 -7t-18 7l-133 133l-133 -133q-7 -7 -17 -7t-18 7z
" />
    <glyph glyph-name="Oslash" unicode="&#xd8;" horiz-adv-x="712" 
d="M356 -10q-92 0 -160 30t-106 90.5t-42 151.5q-1 43 -1 86.5t1 86.5q4 90 42.5 151.5t107 92.5t158.5 31q91 0 159 -31t107 -92.5t42 -151.5q2 -43 2 -86.5t-2 -86.5q-3 -91 -41.5 -151.5t-106.5 -90.5t-160 -30zM356 134q53 0 86.5 32t35.5 102q2 44 2 83t-2 81
q-2 47 -17.5 76.5t-42.5 43.5t-62 14q-34 0 -61 -14t-43 -43.5t-18 -76.5q-1 -42 -1 -81t1 -83q3 -70 36.5 -102t85.5 -32zM87 -65q-13 0 -18 11.5t3 24.5l496 780q2 3 7.5 8.5t15.5 5.5h35q13 0 17.5 -11t-3.5 -24l-497 -780q-2 -3 -7 -9t-17 -6h-32z" />
    <glyph glyph-name="Ugrave" unicode="&#xd9;" horiz-adv-x="725" 
d="M364 -10q-91 0 -158.5 29.5t-104.5 91t-37 156.5v408q0 11 7 18t18 7h129q11 0 18.5 -7t7.5 -18v-407q0 -65 31 -97.5t88 -32.5q56 0 87.5 32.5t31.5 97.5v407q0 11 7.5 18t17.5 7h130q10 0 17.5 -7t7.5 -18v-408q0 -95 -37 -156.5t-104 -91t-157 -29.5zM332 750
q-14 0 -22 3.5t-16 10.5l-133 109q-5 5 -5 12q0 20 19 20h140q12 0 19.5 -3.5t17.5 -15.5l88 -107q5 -5 5 -13q0 -16 -16 -16h-97z" />
    <glyph glyph-name="Uacute" unicode="&#xda;" horiz-adv-x="725" 
d="M364 -10q-91 0 -158.5 29.5t-104.5 91t-37 156.5v408q0 11 7 18t18 7h129q11 0 18.5 -7t7.5 -18v-407q0 -65 31 -97.5t88 -32.5q56 0 87.5 32.5t31.5 97.5v407q0 11 7.5 18t17.5 7h130q10 0 17.5 -7t7.5 -18v-408q0 -95 -37 -156.5t-104 -91t-157 -29.5zM301 750
q-16 0 -16 16q0 8 5 13l88 107q10 12 17 15.5t20 3.5h140q19 0 19 -20q0 -7 -5 -12l-133 -109q-8 -7 -16 -10.5t-22 -3.5h-97z" />
    <glyph glyph-name="Ucircumflex" unicode="&#xdb;" horiz-adv-x="725" 
d="M364 -10q-91 0 -158.5 29.5t-104.5 91t-37 156.5v408q0 11 7 18t18 7h129q11 0 18.5 -7t7.5 -18v-407q0 -65 31 -97.5t88 -32.5q56 0 87.5 32.5t31.5 97.5v407q0 11 7.5 18t17.5 7h130q10 0 17.5 -7t7.5 -18v-408q0 -95 -37 -156.5t-104 -91t-157 -29.5zM191 750
q-16 0 -16 14q0 8 8 16l103 108q10 11 17.5 14t17.5 3h85q10 0 17.5 -3t17.5 -14l102 -108q8 -8 8 -16q0 -14 -15 -14h-51q-8 0 -17 1.5t-17 5.5l-88 49l-87 -49q-8 -4 -17 -5.5t-18 -1.5h-50z" />
    <glyph glyph-name="Udieresis" unicode="&#xdc;" horiz-adv-x="725" 
d="M364 -10q-91 0 -158.5 29.5t-104.5 91t-37 156.5v408q0 11 7 18t18 7h129q11 0 18.5 -7t7.5 -18v-407q0 -65 31 -97.5t88 -32.5q56 0 87.5 32.5t31.5 97.5v407q0 11 7.5 18t17.5 7h130q10 0 17.5 -7t7.5 -18v-408q0 -95 -37 -156.5t-104 -91t-157 -29.5zM435 750
q-10 0 -16.5 6t-6.5 17v91q0 10 6.5 16.5t16.5 6.5h92q10 0 16.5 -6.5t6.5 -16.5v-91q0 -11 -6.5 -17t-16.5 -6h-92zM198 750q-10 0 -16 6t-6 17v91q0 10 6 16.5t16 6.5h92q10 0 16.5 -6.5t6.5 -16.5v-91q0 -11 -6.5 -17t-16.5 -6h-92z" />
    <glyph glyph-name="Yacute" unicode="&#xdd;" horiz-adv-x="681" 
d="M275 0q-10 0 -17.5 7.5t-7.5 17.5v215l-232 428q-1 3 -2 5.5t-1 5.5q0 8 6.5 14.5t15.5 6.5h125q15 0 23.5 -7.5t11.5 -13.5l143 -258l144 258q3 6 11.5 13.5t23.5 7.5h125q9 0 15 -6.5t6 -14.5q0 -3 -0.5 -5.5t-1.5 -5.5l-232 -428v-215q0 -10 -7.5 -17.5t-18.5 -7.5
h-130zM278 750q-16 0 -16 16q0 8 5 13l88 107q10 12 17 15.5t20 3.5h140q19 0 19 -20q0 -7 -5 -12l-133 -109q-8 -7 -16 -10.5t-22 -3.5h-97z" />
    <glyph glyph-name="Thorn" unicode="&#xde;" horiz-adv-x="678" 
d="M95 0q-11 0 -18 7.5t-7 17.5v650q0 11 7 18t18 7h136q10 0 17.5 -7t7.5 -18v-90h116q85 0 147 -25.5t96.5 -77t34.5 -128.5q0 -78 -34.5 -128t-96.5 -74t-147 -24h-116v-103q0 -10 -7.5 -17.5t-18.5 -7.5h-135zM253 266h117q43 0 68.5 22t25.5 67q0 39 -22 65t-72 26
h-117v-180z" />
    <glyph glyph-name="germandbls" unicode="&#xdf;" horiz-adv-x="639" 
d="M84 0q-11 0 -18 7.5t-7 17.5v446q0 66 27 120t84.5 86.5t148.5 32.5q92 0 147.5 -29t81 -74.5t25.5 -94.5q0 -33 -9 -59t-25 -45t-36 -32q35 -14 57 -37.5t32.5 -55.5t10.5 -72q0 -37 -15 -74t-45.5 -68t-79 -50t-116.5 -19h-50q-14 0 -21.5 7.5t-7.5 17.5v77
q0 10 7.5 17.5t21.5 7.5h26q48 0 75.5 25.5t27.5 65.5q0 39 -26.5 65t-79.5 26h-26q-13 0 -19.5 7t-6.5 18v67q0 10 5.5 17.5t20.5 7.5h23q45 1 70 21.5t25 56.5q0 34 -25.5 56.5t-67.5 22.5t-67 -26.5t-25 -83.5v-448q0 -10 -7.5 -17.5t-17.5 -7.5h-118z" />
    <glyph glyph-name="agrave" unicode="&#xe0;" horiz-adv-x="590" 
d="M215 -10q-54 0 -96.5 20.5t-67.5 55.5t-25 79q0 71 58 112.5t154 56.5l125 19v14q0 36 -15 55t-55 19q-28 0 -45.5 -11t-27.5 -30q-9 -13 -25 -13h-112q-11 0 -17 6.5t-5 15.5q0 18 13.5 41.5t41.5 46.5t72 38t107 15q64 0 110 -15t75 -42t42.5 -63.5t13.5 -80.5v-304
q0 -10 -7.5 -17.5t-17.5 -7.5h-116q-11 0 -18 7.5t-7 17.5v35q-13 -19 -35 -35t-51.5 -25.5t-68.5 -9.5zM262 104q29 0 52.5 12.5t37 39t13.5 66.5v14l-85 -15q-47 -8 -68.5 -24.5t-21.5 -38.5q0 -17 10 -29t26.5 -18.5t35.5 -6.5zM265 595q-14 0 -22 3.5t-16 10.5l-133 109
q-5 5 -5 13q0 19 19 19h132q13 0 20 -3.5t17 -15.5l88 -107q5 -5 5 -13q0 -16 -16 -16h-89z" />
    <glyph glyph-name="aacute" unicode="&#xe1;" horiz-adv-x="590" 
d="M215 -10q-54 0 -96.5 20.5t-67.5 55.5t-25 79q0 71 58 112.5t154 56.5l125 19v14q0 36 -15 55t-55 19q-28 0 -45.5 -11t-27.5 -30q-9 -13 -25 -13h-112q-11 0 -17 6.5t-5 15.5q0 18 13.5 41.5t41.5 46.5t72 38t107 15q64 0 110 -15t75 -42t42.5 -63.5t13.5 -80.5v-304
q0 -10 -7.5 -17.5t-17.5 -7.5h-116q-11 0 -18 7.5t-7 17.5v35q-13 -19 -35 -35t-51.5 -25.5t-68.5 -9.5zM262 104q29 0 52.5 12.5t37 39t13.5 66.5v14l-85 -15q-47 -8 -68.5 -24.5t-21.5 -38.5q0 -17 10 -29t26.5 -18.5t35.5 -6.5zM235 595q-16 0 -16 16q0 8 5 13l88 107
q10 12 17 15.5t20 3.5h132q19 0 19 -20q0 -7 -5 -12l-133 -109q-8 -7 -16 -10.5t-22 -3.5h-89z" />
    <glyph glyph-name="acircumflex" unicode="&#xe2;" horiz-adv-x="590" 
d="M215 -10q-54 0 -96.5 20.5t-67.5 55.5t-25 79q0 71 58 112.5t154 56.5l125 19v14q0 36 -15 55t-55 19q-28 0 -45.5 -11t-27.5 -30q-9 -13 -25 -13h-112q-11 0 -17 6.5t-5 15.5q0 18 13.5 41.5t41.5 46.5t72 38t107 15q64 0 110 -15t75 -42t42.5 -63.5t13.5 -80.5v-304
q0 -10 -7.5 -17.5t-17.5 -7.5h-116q-11 0 -18 7.5t-7 17.5v35q-13 -19 -35 -35t-51.5 -25.5t-68.5 -9.5zM262 104q29 0 52.5 12.5t37 39t13.5 66.5v14l-85 -15q-47 -8 -68.5 -24.5t-21.5 -38.5q0 -17 10 -29t26.5 -18.5t35.5 -6.5zM124 595q-15 0 -15 14q0 8 7 16l103 108
q10 11 17.5 14t17.5 3h79q10 0 17.5 -3t17.5 -14l102 -108q8 -8 8 -16q0 -14 -15 -14h-48q-8 0 -17 1.5t-17 5.5l-88 49l-87 -49q-8 -4 -17 -5.5t-18 -1.5h-47z" />
    <glyph glyph-name="atilde" unicode="&#xe3;" horiz-adv-x="590" 
d="M215 -10q-54 0 -96.5 20.5t-67.5 55.5t-25 79q0 71 58 112.5t154 56.5l125 19v14q0 36 -15 55t-55 19q-28 0 -45.5 -11t-27.5 -30q-9 -13 -25 -13h-112q-11 0 -17 6.5t-5 15.5q0 18 13.5 41.5t41.5 46.5t72 38t107 15q64 0 110 -15t75 -42t42.5 -63.5t13.5 -80.5v-304
q0 -10 -7.5 -17.5t-17.5 -7.5h-116q-11 0 -18 7.5t-7 17.5v35q-13 -19 -35 -35t-51.5 -25.5t-68.5 -9.5zM262 104q29 0 52.5 12.5t37 39t13.5 66.5v14l-85 -15q-47 -8 -68.5 -24.5t-21.5 -38.5q0 -17 10 -29t26.5 -18.5t35.5 -6.5zM353 590q-28 0 -45 9t-31 17.5t-32 8.5
q-13 0 -19.5 -7t-11.5 -15t-16 -8h-60q-7 0 -12 5.5t-5 11.5q0 16 5.5 37.5t18.5 41.5t34.5 33.5t52.5 13.5q28 0 45.5 -9t31.5 -17.5t31 -8.5q14 0 19.5 7.5l11 15t16.5 7.5h60q8 0 13 -5t5 -13q0 -16 -6 -37t-19 -41.5t-34.5 -33.5t-52.5 -13z" />
    <glyph glyph-name="adieresis" unicode="&#xe4;" horiz-adv-x="590" 
d="M215 -10q-54 0 -96.5 20.5t-67.5 55.5t-25 79q0 71 58 112.5t154 56.5l125 19v14q0 36 -15 55t-55 19q-28 0 -45.5 -11t-27.5 -30q-9 -13 -25 -13h-112q-11 0 -17 6.5t-5 15.5q0 18 13.5 41.5t41.5 46.5t72 38t107 15q64 0 110 -15t75 -42t42.5 -63.5t13.5 -80.5v-304
q0 -10 -7.5 -17.5t-17.5 -7.5h-116q-11 0 -18 7.5t-7 17.5v35q-13 -19 -35 -35t-51.5 -25.5t-68.5 -9.5zM262 104q29 0 52.5 12.5t37 39t13.5 66.5v14l-85 -15q-47 -8 -68.5 -24.5t-21.5 -38.5q0 -17 10 -29t26.5 -18.5t35.5 -6.5zM350 607q-10 0 -16.5 6t-6.5 17v91
q0 10 6.5 16.5t16.5 6.5h92q10 0 16.5 -6.5t6.5 -16.5v-91q0 -11 -6.5 -17t-16.5 -6h-92zM143 607q-10 0 -16 6t-6 17v91q0 10 6 16.5t16 6.5h92q10 0 16.5 -6.5t6.5 -16.5v-91q0 -11 -6.5 -17t-16.5 -6h-92z" />
    <glyph glyph-name="aring" unicode="&#xe5;" horiz-adv-x="590" 
d="M215 -10q-54 0 -96.5 20.5t-67.5 55.5t-25 79q0 71 58 112.5t154 56.5l125 19v14q0 36 -15 55t-55 19q-28 0 -45.5 -11t-27.5 -30q-9 -13 -25 -13h-112q-11 0 -17 6.5t-5 15.5q0 18 13.5 41.5t41.5 46.5t72 38t107 15q64 0 110 -15t75 -42t42.5 -63.5t13.5 -80.5v-304
q0 -10 -7.5 -17.5t-17.5 -7.5h-116q-11 0 -18 7.5t-7 17.5v35q-13 -19 -35 -35t-51.5 -25.5t-68.5 -9.5zM262 104q29 0 52.5 12.5t37 39t13.5 66.5v14l-85 -15q-47 -8 -68.5 -24.5t-21.5 -38.5q0 -17 10 -29t26.5 -18.5t35.5 -6.5zM293 590q-38 0 -65 25t-27 63t27 62.5
t65 24.5t65.5 -24.5t27.5 -62.5t-27.5 -63t-65.5 -25zM293 648q13 0 21.5 8.5t8.5 21.5t-8.5 21.5t-21.5 8.5t-21.5 -8.5t-8.5 -21.5t8.5 -21.5t21.5 -8.5z" />
    <glyph glyph-name="ae" unicode="&#xe6;" horiz-adv-x="915" 
d="M228 -10q-63 0 -108 20.5t-69 55.5t-24 79q0 71 57.5 113t153.5 57l125 19v14q0 36 -15 54.5t-54 18.5q-25 0 -40.5 -9t-26.5 -19.5t-24 -17.5q-2 -4 -4.5 -6t-6.5 -2h-109q-10 0 -16 6.5t-6 15.5q0 18 13 41.5t41 46.5t72.5 38t107.5 15t102.5 -15.5t62.5 -40.5
q30 25 70 40.5t91 15.5q72 0 121.5 -23t79.5 -61.5t43.5 -86t13.5 -96.5v-24q0 -11 -7 -18t-18 -7h-316v-7q1 -37 12 -60t29.5 -34t40.5 -11q20 0 38 9t32 27q9 10 14.5 13t17.5 3h122q22 0 22 -22q0 -16 -15 -40t-45.5 -47t-76.5 -39t-108 -16q-66 0 -114 21.5t-79 57.5
q-40 -45 -92.5 -62t-107.5 -17zM262 104q30 0 53 12.5t36.5 39t13.5 66.5v14l-85 -15q-47 -8 -68.5 -24.5t-21.5 -38.5q0 -17 10 -29t26.5 -18.5t35.5 -6.5zM538 313h165v4q0 48 -20.5 76t-61.5 28q-23 0 -41.5 -11.5t-29.5 -34t-12 -58.5v-4z" />
    <glyph glyph-name="ccedilla" unicode="&#xe7;" horiz-adv-x="590" 
d="M298 -220q-27 0 -49 9t-31 21t1 21l18 16q9 8 15.5 5.5t16.5 -8t29 -5.5q15 0 24 8.5t9 21.5q0 12 -9 20.5t-24 8.5q-12 0 -22 -3.5t-18.5 -4t-16.5 5.5l-19 20q-6 6 -5.5 13t6.5 19l20 46q-89 14 -144 72t-59 153q-1 16 -1 40.5t1 40.5q3 73 36 124.5t90.5 78.5
t131.5 27q69 0 118.5 -19.5t80 -48.5t46 -59.5t16.5 -53.5q1 -10 -7 -17.5t-18 -7.5h-127q-11 0 -17 5t-11 15q-12 31 -30.5 44t-47.5 13q-40 0 -61.5 -26t-23.5 -80q-1 -40 0 -71q3 -55 24 -80t61 -25q31 0 49 13.5t29 43.5q5 10 11 15t17 5h127q10 0 18 -7t7 -18
q-1 -20 -15.5 -50.5t-44 -59.5t-78 -49.5t-119.5 -21.5l-19 -40q6 3 16.5 4.5t16.5 1.5q36 0 57.5 -24t21.5 -63q0 -38 -26 -63.5t-71 -25.5z" />
    <glyph glyph-name="egrave" unicode="&#xe8;" horiz-adv-x="594" 
d="M299 -10q-118 0 -188 64t-73 190v18v17q3 79 35.5 135.5t90 86t134.5 29.5q88 0 145.5 -35t86.5 -95t29 -137v-24q0 -11 -7 -18t-18 -7h-320v-3v-4q1 -29 10.5 -53t28 -38t45.5 -14q20 0 33.5 6.5t22.5 15t14 14.5q9 11 14.5 13.5t17.5 2.5h124q10 0 16.5 -6t5.5 -16
q-1 -17 -17 -41t-46.5 -47.5t-76.5 -38.5t-107 -15zM214 313h169v2q0 33 -9.5 56.5t-29 36.5t-46.5 13q-26 0 -45 -13t-29 -36.5t-10 -56.5v-2zM270 595q-14 0 -22 3.5t-16 10.5l-133 109q-5 5 -5 13q0 19 19 19h132q13 0 20 -3.5t17 -15.5l88 -107q5 -5 5 -13
q0 -16 -16 -16h-89z" />
    <glyph glyph-name="eacute" unicode="&#xe9;" horiz-adv-x="594" 
d="M299 -10q-118 0 -188 64t-73 190v18v17q3 79 35.5 135.5t90 86t134.5 29.5q88 0 145.5 -35t86.5 -95t29 -137v-24q0 -11 -7 -18t-18 -7h-320v-3v-4q1 -29 10.5 -53t28 -38t45.5 -14q20 0 33.5 6.5t22.5 15t14 14.5q9 11 14.5 13.5t17.5 2.5h124q10 0 16.5 -6t5.5 -16
q-1 -17 -17 -41t-46.5 -47.5t-76.5 -38.5t-107 -15zM214 313h169v2q0 33 -9.5 56.5t-29 36.5t-46.5 13q-26 0 -45 -13t-29 -36.5t-10 -56.5v-2zM240 595q-16 0 -16 16q0 8 5 13l88 107q10 12 17 15.5t20 3.5h132q19 0 19 -20q0 -7 -5 -12l-133 -109q-8 -7 -16 -10.5
t-22 -3.5h-89z" />
    <glyph glyph-name="ecircumflex" unicode="&#xea;" horiz-adv-x="594" 
d="M299 -10q-118 0 -188 64t-73 190v18v17q3 79 35.5 135.5t90 86t134.5 29.5q88 0 145.5 -35t86.5 -95t29 -137v-24q0 -11 -7 -18t-18 -7h-320v-3v-4q1 -29 10.5 -53t28 -38t45.5 -14q20 0 33.5 6.5t22.5 15t14 14.5q9 11 14.5 13.5t17.5 2.5h124q10 0 16.5 -6t5.5 -16
q-1 -17 -17 -41t-46.5 -47.5t-76.5 -38.5t-107 -15zM214 313h169v2q0 33 -9.5 56.5t-29 36.5t-46.5 13q-26 0 -45 -13t-29 -36.5t-10 -56.5v-2zM129 595q-15 0 -15 14q0 8 7 16l103 108q10 11 17.5 14t17.5 3h79q10 0 17.5 -3t17.5 -14l102 -108q8 -8 8 -16q0 -14 -15 -14
h-48q-8 0 -17 1.5t-17 5.5l-88 49l-87 -49q-8 -4 -17 -5.5t-18 -1.5h-47z" />
    <glyph glyph-name="edieresis" unicode="&#xeb;" horiz-adv-x="594" 
d="M299 -10q-118 0 -188 64t-73 190v18v17q3 79 35.5 135.5t90 86t134.5 29.5q88 0 145.5 -35t86.5 -95t29 -137v-24q0 -11 -7 -18t-18 -7h-320v-3v-4q1 -29 10.5 -53t28 -38t45.5 -14q20 0 33.5 6.5t22.5 15t14 14.5q9 11 14.5 13.5t17.5 2.5h124q10 0 16.5 -6t5.5 -16
q-1 -17 -17 -41t-46.5 -47.5t-76.5 -38.5t-107 -15zM214 313h169v2q0 33 -9.5 56.5t-29 36.5t-46.5 13q-26 0 -45 -13t-29 -36.5t-10 -56.5v-2zM355 607q-10 0 -16.5 6t-6.5 17v91q0 10 6.5 16.5t16.5 6.5h92q10 0 16.5 -6.5t6.5 -16.5v-91q0 -11 -6.5 -17t-16.5 -6h-92z
M148 607q-10 0 -16 6t-6 17v91q0 10 6 16.5t16 6.5h92q10 0 16.5 -6.5t6.5 -16.5v-91q0 -11 -6.5 -17t-16.5 -6h-92z" />
    <glyph glyph-name="igrave" unicode="&#xec;" horiz-adv-x="286" 
d="M84 0q-11 0 -18 7.5t-7 17.5v470q0 11 7 18t18 7h118q11 0 18 -7t7 -18v-470q0 -10 -7 -17.5t-18 -7.5h-118zM115 595q-14 0 -22 3.5t-16 10.5l-133 109q-5 5 -5 13q0 19 19 19h132q13 0 20 -3.5t17 -15.5l88 -107q5 -5 5 -13q0 -16 -16 -16h-89z" />
    <glyph glyph-name="iacute" unicode="&#xed;" horiz-adv-x="286" 
d="M84 0q-11 0 -18 7.5t-7 17.5v470q0 11 7 18t18 7h118q11 0 18 -7t7 -18v-470q0 -10 -7 -17.5t-18 -7.5h-118zM85 595q-16 0 -16 16q0 8 5 13l88 107q10 12 17 15.5t20 3.5h132q19 0 19 -20q0 -7 -5 -12l-133 -109q-8 -7 -16 -10.5t-22 -3.5h-89z" />
    <glyph glyph-name="icircumflex" unicode="&#xee;" horiz-adv-x="286" 
d="M84 0q-11 0 -18 7.5t-7 17.5v470q0 11 7 18t18 7h118q11 0 18 -7t7 -18v-470q0 -10 -7 -17.5t-18 -7.5h-118zM-26 595q-15 0 -15 14q0 8 7 16l103 108q10 11 17.5 14t17.5 3h79q10 0 17.5 -3t17.5 -14l102 -108q8 -8 8 -16q0 -14 -15 -14h-48q-8 0 -17 1.5t-17 5.5
l-88 49l-87 -49q-8 -4 -17 -5.5t-18 -1.5h-47z" />
    <glyph glyph-name="idieresis" unicode="&#xef;" horiz-adv-x="286" 
d="M84 0q-11 0 -18 7.5t-7 17.5v470q0 11 7 18t18 7h118q11 0 18 -7t7 -18v-470q0 -10 -7 -17.5t-18 -7.5h-118zM200 607q-10 0 -16.5 6t-6.5 17v91q0 10 6.5 16.5t16.5 6.5h92q10 0 16.5 -6.5t6.5 -16.5v-91q0 -11 -6.5 -17t-16.5 -6h-92zM-7 607q-10 0 -16 6t-6 17v91
q0 10 6 16.5t16 6.5h92q10 0 16.5 -6.5t6.5 -16.5v-91q0 -11 -6.5 -17t-16.5 -6h-92z" />
    <glyph glyph-name="eth" unicode="&#xf0;" horiz-adv-x="605" 
d="M300 -10q-81 0 -140 28t-91 82t-32 130q0 77 33 130.5t92.5 81.5t137.5 28q17 0 31.5 -3.5t26.5 -11.5q-16 44 -43 80l-110 -43q-7 -3 -11 -3q-9 0 -15 5.5t-6 14.5v25q0 13 5 19.5t17 10.5l70 27q-18 18 -39 35t-43 33q-8 6 -11 11t-3 9q0 9 6 15t15 6h125q17 0 28.5 -4
t18.5 -9l24 -20t22 -21l91 36q8 3 12 3q9 0 14.5 -5.5t5.5 -14.5v-25q0 -12 -5 -18.5t-17 -11.5l-48 -19q45 -57 72 -134.5t30 -189.5q1 -10 1 -20.5t-1 -19.5q-2 -75 -34.5 -128t-90 -81t-138.5 -28zM300 112q30 0 49 13t28.5 36t9.5 51q1 10 1 17.5t-1 17.5q0 29 -9 52
t-27.5 36t-50.5 13q-31 0 -50 -13t-28 -36t-9 -52q-1 -10 -1 -17.5t1 -17.5q1 -28 9.5 -51t28 -36t49.5 -13z" />
    <glyph glyph-name="ntilde" unicode="&#xf1;" horiz-adv-x="643" 
d="M84 0q-11 0 -18 7.5t-7 17.5v470q0 11 7 18t18 7h115q11 0 18.5 -7t7.5 -18v-38q25 31 67 52t99 21q58 0 102.5 -26t70 -76t25.5 -124v-279q0 -10 -7 -17.5t-18 -7.5h-126q-10 0 -17.5 7.5t-7.5 17.5v273q0 47 -22.5 72.5t-66.5 25.5q-41 0 -65.5 -25.5t-24.5 -72.5v-273
q0 -10 -7.5 -17.5t-17.5 -7.5h-125zM384 590q-28 0 -45 9t-31 17.5t-32 8.5q-13 0 -19.5 -7t-11.5 -15t-16 -8h-60q-7 0 -12 5.5t-5 11.5q0 16 5.5 37.5t18.5 41.5t34.5 33.5t52.5 13.5q28 0 45.5 -9t31.5 -17.5t31 -8.5q14 0 19.5 7.5l11 15t16.5 7.5h60q8 0 13 -5t5 -13
q0 -16 -6 -37t-19 -41.5t-34.5 -33.5t-52.5 -13z" />
    <glyph glyph-name="ograve" unicode="&#xf2;" horiz-adv-x="611" 
d="M305 -10q-84 0 -141.5 27t-88 77.5t-34.5 120.5q-1 20 -1 45.5t1 44.5q4 71 36 121t89.5 77t138.5 27q82 0 139.5 -27t89.5 -77t36 -121q1 -19 1 -44.5t-1 -45.5q-4 -70 -34.5 -120.5t-88 -77.5t-142.5 -27zM305 112q45 0 65.5 27t23.5 81q1 15 1 40t-1 40
q-3 53 -23.5 80.5t-65.5 27.5q-43 0 -64.5 -27.5t-23.5 -80.5q-1 -15 -1 -40t1 -40q2 -54 23.5 -81t64.5 -27zM277 595q-14 0 -22 3.5t-16 10.5l-133 109q-5 5 -5 13q0 19 19 19h132q13 0 20 -3.5t17 -15.5l88 -107q5 -5 5 -13q0 -16 -16 -16h-89z" />
    <glyph glyph-name="oacute" unicode="&#xf3;" horiz-adv-x="611" 
d="M305 -10q-84 0 -141.5 27t-88 77.5t-34.5 120.5q-1 20 -1 45.5t1 44.5q4 71 36 121t89.5 77t138.5 27q82 0 139.5 -27t89.5 -77t36 -121q1 -19 1 -44.5t-1 -45.5q-4 -70 -34.5 -120.5t-88 -77.5t-142.5 -27zM305 112q45 0 65.5 27t23.5 81q1 15 1 40t-1 40
q-3 53 -23.5 80.5t-65.5 27.5q-43 0 -64.5 -27.5t-23.5 -80.5q-1 -15 -1 -40t1 -40q2 -54 23.5 -81t64.5 -27zM247 595q-16 0 -16 16q0 8 5 13l88 107q10 12 17 15.5t20 3.5h132q19 0 19 -20q0 -7 -5 -12l-133 -109q-8 -7 -16 -10.5t-22 -3.5h-89z" />
    <glyph glyph-name="ocircumflex" unicode="&#xf4;" horiz-adv-x="611" 
d="M305 -10q-84 0 -141.5 27t-88 77.5t-34.5 120.5q-1 20 -1 45.5t1 44.5q4 71 36 121t89.5 77t138.5 27q82 0 139.5 -27t89.5 -77t36 -121q1 -19 1 -44.5t-1 -45.5q-4 -70 -34.5 -120.5t-88 -77.5t-142.5 -27zM305 112q45 0 65.5 27t23.5 81q1 15 1 40t-1 40
q-3 53 -23.5 80.5t-65.5 27.5q-43 0 -64.5 -27.5t-23.5 -80.5q-1 -15 -1 -40t1 -40q2 -54 23.5 -81t64.5 -27zM136 595q-15 0 -15 14q0 8 7 16l103 108q10 11 17.5 14t17.5 3h79q10 0 17.5 -3t17.5 -14l102 -108q8 -8 8 -16q0 -14 -15 -14h-48q-8 0 -17 1.5t-17 5.5l-88 49
l-87 -49q-8 -4 -17 -5.5t-18 -1.5h-47z" />
    <glyph glyph-name="otilde" unicode="&#xf5;" horiz-adv-x="611" 
d="M305 -10q-84 0 -141.5 27t-88 77.5t-34.5 120.5q-1 20 -1 45.5t1 44.5q4 71 36 121t89.5 77t138.5 27q82 0 139.5 -27t89.5 -77t36 -121q1 -19 1 -44.5t-1 -45.5q-4 -70 -34.5 -120.5t-88 -77.5t-142.5 -27zM305 112q45 0 65.5 27t23.5 81q1 15 1 40t-1 40
q-3 53 -23.5 80.5t-65.5 27.5q-43 0 -64.5 -27.5t-23.5 -80.5q-1 -15 -1 -40t1 -40q2 -54 23.5 -81t64.5 -27zM365 590q-28 0 -45 9t-31 17.5t-32 8.5q-13 0 -19.5 -7t-11.5 -15t-16 -8h-60q-7 0 -12 5.5t-5 11.5q0 16 5.5 37.5t18.5 41.5t34.5 33.5t52.5 13.5q28 0 45.5 -9
t31.5 -17.5t31 -8.5q14 0 19.5 7.5l11 15t16.5 7.5h60q8 0 13 -5t5 -13q0 -16 -6 -37t-19 -41.5t-34.5 -33.5t-52.5 -13z" />
    <glyph glyph-name="odieresis" unicode="&#xf6;" horiz-adv-x="611" 
d="M305 -10q-84 0 -141.5 27t-88 77.5t-34.5 120.5q-1 20 -1 45.5t1 44.5q4 71 36 121t89.5 77t138.5 27q82 0 139.5 -27t89.5 -77t36 -121q1 -19 1 -44.5t-1 -45.5q-4 -70 -34.5 -120.5t-88 -77.5t-142.5 -27zM305 112q45 0 65.5 27t23.5 81q1 15 1 40t-1 40
q-3 53 -23.5 80.5t-65.5 27.5q-43 0 -64.5 -27.5t-23.5 -80.5q-1 -15 -1 -40t1 -40q2 -54 23.5 -81t64.5 -27zM362 607q-10 0 -16.5 6t-6.5 17v91q0 10 6.5 16.5t16.5 6.5h92q10 0 16.5 -6.5t6.5 -16.5v-91q0 -11 -6.5 -17t-16.5 -6h-92zM155 607q-10 0 -16 6t-6 17v91
q0 10 6 16.5t16 6.5h92q10 0 16.5 -6.5t6.5 -16.5v-91q0 -11 -6.5 -17t-16.5 -6h-92z" />
    <glyph glyph-name="divide" unicode="&#xf7;" horiz-adv-x="535" 
d="M71 236q-11 0 -18 7.5t-7 17.5v78q0 11 7 18t18 7h393q11 0 18.5 -7t7.5 -18v-78q0 -10 -7.5 -17.5t-18.5 -7.5h-393zM219 45q-10 0 -17.5 7t-7.5 18v89q0 11 7.5 18.5t17.5 7.5h96q10 0 17.5 -7.5t7.5 -18.5v-89q0 -11 -7.5 -18t-17.5 -7h-96zM219 416q-10 0 -17.5 7
t-7.5 18v89q0 11 7.5 18.5t17.5 7.5h96q10 0 17.5 -7.5t7.5 -18.5v-89q0 -11 -7.5 -18t-17.5 -7h-96z" />
    <glyph glyph-name="oslash" unicode="&#xf8;" horiz-adv-x="611" 
d="M305 -10q-84 0 -141.5 27t-88 77.5t-34.5 120.5q-1 20 -1 45.5t1 44.5q4 71 36 121t89.5 77t138.5 27q82 0 139.5 -27t89.5 -77t36 -121q1 -19 1 -44.5t-1 -45.5q-4 -70 -34.5 -120.5t-88 -77.5t-142.5 -27zM305 112q45 0 65.5 27t23.5 81q1 15 1 40t-1 40
q-3 53 -23.5 80.5t-65.5 27.5q-43 0 -64.5 -27.5t-23.5 -80.5q-1 -15 -1 -40t1 -40q2 -54 23.5 -81t64.5 -27zM65 -28q-8 0 -14 6t-6 14q0 3 1 6.5t5 7.5l439 526q3 4 9 9.5t16 5.5h30q8 0 14 -6t6 -14q0 -1 -0.5 -5.5t-4.5 -9.5l-439 -525q-3 -4 -8.5 -9.5t-15.5 -5.5h-32z
" />
    <glyph glyph-name="ugrave" unicode="&#xf9;" horiz-adv-x="641" 
d="M250 -10q-57 0 -101.5 26t-69.5 76.5t-25 123.5v279q0 11 7 18t18 7h125q11 0 18.5 -7t7.5 -18v-273q0 -98 87 -98q41 0 65.5 25.5t24.5 72.5v273q0 11 7 18t18 7h125q11 0 18 -7t7 -18v-470q0 -10 -7 -17.5t-18 -7.5h-116q-10 0 -17.5 7.5t-7.5 17.5v38
q-26 -36 -67.5 -54.5t-98.5 -18.5zM291 595q-14 0 -22 3.5t-16 10.5l-133 109q-5 5 -5 13q0 19 19 19h132q13 0 20 -3.5t17 -15.5l88 -107q5 -5 5 -13q0 -16 -16 -16h-89z" />
    <glyph glyph-name="uacute" unicode="&#xfa;" horiz-adv-x="641" 
d="M250 -10q-57 0 -101.5 26t-69.5 76.5t-25 123.5v279q0 11 7 18t18 7h125q11 0 18.5 -7t7.5 -18v-273q0 -98 87 -98q41 0 65.5 25.5t24.5 72.5v273q0 11 7 18t18 7h125q11 0 18 -7t7 -18v-470q0 -10 -7 -17.5t-18 -7.5h-116q-10 0 -17.5 7.5t-7.5 17.5v38
q-26 -36 -67.5 -54.5t-98.5 -18.5zM261 595q-16 0 -16 16q0 8 5 13l88 107q10 12 17 15.5t20 3.5h132q19 0 19 -20q0 -7 -5 -12l-133 -109q-8 -7 -16 -10.5t-22 -3.5h-89z" />
    <glyph glyph-name="ucircumflex" unicode="&#xfb;" horiz-adv-x="641" 
d="M250 -10q-57 0 -101.5 26t-69.5 76.5t-25 123.5v279q0 11 7 18t18 7h125q11 0 18.5 -7t7.5 -18v-273q0 -98 87 -98q41 0 65.5 25.5t24.5 72.5v273q0 11 7 18t18 7h125q11 0 18 -7t7 -18v-470q0 -10 -7 -17.5t-18 -7.5h-116q-10 0 -17.5 7.5t-7.5 17.5v38
q-26 -36 -67.5 -54.5t-98.5 -18.5zM150 595q-15 0 -15 14q0 8 7 16l103 108q10 11 17.5 14t17.5 3h79q10 0 17.5 -3t17.5 -14l102 -108q8 -8 8 -16q0 -14 -15 -14h-48q-8 0 -17 1.5t-17 5.5l-88 49l-87 -49q-8 -4 -17 -5.5t-18 -1.5h-47z" />
    <glyph glyph-name="udieresis" unicode="&#xfc;" horiz-adv-x="641" 
d="M250 -10q-57 0 -101.5 26t-69.5 76.5t-25 123.5v279q0 11 7 18t18 7h125q11 0 18.5 -7t7.5 -18v-273q0 -98 87 -98q41 0 65.5 25.5t24.5 72.5v273q0 11 7 18t18 7h125q11 0 18 -7t7 -18v-470q0 -10 -7 -17.5t-18 -7.5h-116q-10 0 -17.5 7.5t-7.5 17.5v38
q-26 -36 -67.5 -54.5t-98.5 -18.5zM376 607q-10 0 -16.5 6t-6.5 17v91q0 10 6.5 16.5t16.5 6.5h92q10 0 16.5 -6.5t6.5 -16.5v-91q0 -11 -6.5 -17t-16.5 -6h-92zM169 607q-10 0 -16 6t-6 17v91q0 10 6 16.5t16 6.5h92q10 0 16.5 -6.5t6.5 -16.5v-91q0 -11 -6.5 -17t-16.5 -6
h-92z" />
    <glyph glyph-name="yacute" unicode="&#xfd;" horiz-adv-x="597" 
d="M156 -190q-9 0 -15 6t-6 15q0 2 0.5 5.5t2.5 7.5l78 188l-192 454q-3 7 -3 12q2 9 8 15.5t15 6.5h114q13 0 19.5 -6.5t9.5 -14.5l114 -291l117 291q4 8 10.5 14.5t19.5 6.5h112q9 0 15.5 -6.5t6.5 -14.5q0 -5 -3 -13l-283 -655q-3 -8 -10 -14.5t-20 -6.5h-110zM242 595
q-16 0 -16 16q0 8 5 13l88 107q10 12 17 15.5t20 3.5h132q19 0 19 -20q0 -7 -5 -12l-133 -109q-8 -7 -16 -10.5t-22 -3.5h-89z" />
    <glyph glyph-name="thorn" unicode="&#xfe;" horiz-adv-x="632" 
d="M85 -190q-11 0 -18 7.5t-7 17.5v850q0 11 7 18t18 7h122q10 0 17.5 -7t7.5 -18v-220q24 31 57 48t89 17q50 0 88 -15.5t65 -45.5t42 -73t18 -99q1 -20 1 -37t-1 -37q-2 -54 -17 -97t-42.5 -73t-65.5 -46.5t-88 -16.5t-86 17.5t-60 49.5v-222q0 -10 -7.5 -17.5t-17.5 -7.5
h-122zM324 124q34 0 53 14t27.5 38t10.5 53q2 31 0 62q-2 29 -10.5 53t-27.5 38t-53 14q-33 0 -53 -14.5t-29 -37.5t-10 -50q-1 -19 -1 -37t1 -38q1 -25 11 -46.5t30 -35t51 -13.5z" />
    <glyph glyph-name="ydieresis" unicode="&#xff;" horiz-adv-x="597" 
d="M156 -190q-9 0 -15 6t-6 15q0 2 0.5 5.5t2.5 7.5l78 188l-192 454q-3 7 -3 12q2 9 8 15.5t15 6.5h114q13 0 19.5 -6.5t9.5 -14.5l114 -291l117 291q4 8 10.5 14.5t19.5 6.5h112q9 0 15.5 -6.5t6.5 -14.5q0 -5 -3 -13l-283 -655q-3 -8 -10 -14.5t-20 -6.5h-110zM357 607
q-10 0 -16.5 6t-6.5 17v91q0 10 6.5 16.5t16.5 6.5h92q10 0 16.5 -6.5t6.5 -16.5v-91q0 -11 -6.5 -17t-16.5 -6h-92zM150 607q-10 0 -16 6t-6 17v91q0 10 6 16.5t16 6.5h92q10 0 16.5 -6.5t6.5 -16.5v-91q0 -11 -6.5 -17t-16.5 -6h-92z" />
    <glyph glyph-name="Amacron" unicode="&#x100;" horiz-adv-x="716" 
d="M30 0q-8 0 -14.5 6.5t-6.5 14.5q0 5 1 9l235 642q3 11 12.5 19.5t26.5 8.5h148q17 0 26.5 -8.5t12.5 -19.5l234 -642q2 -4 2 -9q0 -8 -6.5 -14.5t-15.5 -6.5h-123q-15 0 -22.5 7.5t-9.5 13.5l-39 102h-267l-38 -102q-2 -6 -9 -13.5t-24 -7.5h-123zM265 267h186l-93 264z
M202 750q-10 0 -16 6t-6 17v73q0 10 6 16.5t16 6.5h310q11 0 17 -6.5t6 -16.5v-73q0 -11 -6 -17t-17 -6h-310z" />
    <glyph glyph-name="amacron" unicode="&#x101;" horiz-adv-x="590" 
d="M215 -10q-54 0 -96.5 20.5t-67.5 55.5t-25 79q0 71 58 112.5t154 56.5l125 19v14q0 36 -15 55t-55 19q-28 0 -45.5 -11t-27.5 -30q-9 -13 -25 -13h-112q-11 0 -17 6.5t-5 15.5q0 18 13.5 41.5t41.5 46.5t72 38t107 15q64 0 110 -15t75 -42t42.5 -63.5t13.5 -80.5v-304
q0 -10 -7.5 -17.5t-17.5 -7.5h-116q-11 0 -18 7.5t-7 17.5v35q-13 -19 -35 -35t-51.5 -25.5t-68.5 -9.5zM262 104q29 0 52.5 12.5t37 39t13.5 66.5v14l-85 -15q-47 -8 -68.5 -24.5t-21.5 -38.5q0 -17 10 -29t26.5 -18.5t35.5 -6.5zM153 605q-10 0 -16 6t-6 17v70
q0 10 6 16.5t16 6.5h279q10 0 16.5 -6.5t6.5 -16.5v-70q0 -11 -6.5 -17t-16.5 -6h-279z" />
    <glyph glyph-name="Abreve" unicode="&#x102;" horiz-adv-x="716" 
d="M30 0q-8 0 -14.5 6.5t-6.5 14.5q0 5 1 9l235 642q3 11 12.5 19.5t26.5 8.5h148q17 0 26.5 -8.5t12.5 -19.5l234 -642q2 -4 2 -9q0 -8 -6.5 -14.5t-15.5 -6.5h-123q-15 0 -22.5 7.5t-9.5 13.5l-39 102h-267l-38 -102q-2 -6 -9 -13.5t-24 -7.5h-123zM265 267h186l-93 264z
M358 743q-54 0 -88 19.5t-49.5 51.5t-15.5 70q0 8 5 13.5t14 5.5h67q9 0 14 -5.5t5 -13.5q0 -23 9.5 -41t38.5 -18t39 18t10 41q0 8 5 13.5t14 5.5h67q9 0 14 -5.5t5 -13.5q0 -38 -15.5 -70t-49.5 -51.5t-89 -19.5z" />
    <glyph glyph-name="abreve" unicode="&#x103;" horiz-adv-x="590" 
d="M215 -10q-54 0 -96.5 20.5t-67.5 55.5t-25 79q0 71 58 112.5t154 56.5l125 19v14q0 36 -15 55t-55 19q-28 0 -45.5 -11t-27.5 -30q-9 -13 -25 -13h-112q-11 0 -17 6.5t-5 15.5q0 18 13.5 41.5t41.5 46.5t72 38t107 15q64 0 110 -15t75 -42t42.5 -63.5t13.5 -80.5v-304
q0 -10 -7.5 -17.5t-17.5 -7.5h-116q-11 0 -18 7.5t-7 17.5v35q-13 -19 -35 -35t-51.5 -25.5t-68.5 -9.5zM262 104q29 0 52.5 12.5t37 39t13.5 66.5v14l-85 -15q-47 -8 -68.5 -24.5t-21.5 -38.5q0 -17 10 -29t26.5 -18.5t35.5 -6.5zM293 590q-51 0 -84 19t-49 51t-16 71
q0 8 5 13.5t14 5.5h65q9 0 14 -5.5t5 -13.5q0 -23 10 -41t36 -18q28 0 37.5 18t9.5 41q0 8 5 13.5t14 5.5h64q9 0 14 -5.5t5 -13.5q0 -39 -16 -71t-49 -51t-84 -19z" />
    <glyph glyph-name="Aogonek" unicode="&#x104;" horiz-adv-x="716" 
d="M655 -220q-53 0 -88 21t-52 57t-17 81q0 30 12 51t31 31q-8 2 -12.5 7.5t-5.5 10.5l-32 84h-267l-38 -102q-2 -6 -9 -13.5t-24 -7.5h-123q-8 0 -14.5 6.5t-6.5 14.5q0 5 1 9l235 642q3 11 12.5 19.5t26.5 8.5h148q17 0 26.5 -8.5t12.5 -19.5l234 -642q2 -4 2 -9
q0 -8 -6.5 -14.5t-15.5 -6.5h-30q-28 -1 -42 -19.5t-14 -41.5q0 -25 14.5 -43t45.5 -18h12q10 0 17.5 -7.5t7.5 -17.5v-48q0 -10 -7.5 -17.5t-17.5 -7.5h-16zM265 267h186l-93 264z" />
    <glyph glyph-name="aogonek" unicode="&#x105;" horiz-adv-x="590" 
d="M499 -220q-49 0 -82.5 20t-50.5 55.5t-17 80.5q0 17 5.5 31.5t13 26.5t14.5 19q-5 2 -8.5 7t-3.5 11v29q-13 -19 -35 -35t-51.5 -25.5t-68.5 -9.5q-54 0 -96.5 20.5t-67.5 55.5t-25 79q0 71 58 112.5t154 56.5l125 19v14q0 36 -15 55t-55 19q-24 0 -39.5 -9t-26.5 -19.5
t-24 -17.5q-2 -4 -4.5 -6t-6.5 -2h-109q-10 0 -16.5 6.5t-5.5 15.5q0 18 13.5 41.5t41.5 46.5t72 38t107 15q64 0 110 -15t75 -42t42.5 -63.5t13.5 -80.5v-304q0 -9 -6 -16t-16 -9h-11q-28 -7 -40.5 -24.5t-12.5 -39.5q0 -25 12.5 -41.5t40.5 -16.5h8q10 0 17.5 -7.5
t7.5 -17.5v-48q0 -10 -7.5 -17.5t-17.5 -7.5h-12zM262 104q29 0 52.5 12.5t37 39t13.5 66.5v14l-85 -15q-47 -8 -68.5 -24.5t-21.5 -38.5q0 -17 10 -29t26.5 -18.5t35.5 -6.5z" />
    <glyph glyph-name="Cacute" unicode="&#x106;" horiz-adv-x="702" 
d="M357 -10q-94 0 -162 31t-105.5 91t-41.5 149q-1 41 -1 88t1 90q4 87 42 148t106 92t161 31q66 0 122 -16.5t98 -48t65.5 -76t24.5 -100.5q1 -9 -5.5 -15t-15.5 -6h-135q-13 0 -20 5.5t-12 20.5q-14 53 -45.5 72.5t-77.5 19.5q-55 0 -87 -30.5t-35 -101.5q-3 -82 0 -168
q3 -71 35 -101.5t87 -30.5q46 0 78 20t45 72q4 15 11.5 20.5t20.5 5.5h135q9 0 15.5 -6t5.5 -15q-1 -56 -24.5 -100.5t-65.5 -76t-98 -48t-122 -16.5zM290 750q-16 0 -16 16q0 8 5 13l88 107q10 12 17 15.5t20 3.5h140q19 0 19 -20q0 -7 -5 -12l-133 -109q-8 -7 -16 -10.5
t-22 -3.5h-97z" />
    <glyph glyph-name="cacute" unicode="&#x107;" horiz-adv-x="590" 
d="M298 -10q-74 0 -131 27t-90.5 78.5t-36.5 123.5q-1 16 -1 40.5t1 40.5q3 73 36 124.5t90.5 78.5t131.5 27q69 0 118.5 -19.5t80 -48.5t46 -59.5t16.5 -53.5q1 -10 -7 -17.5t-18 -7.5h-127q-11 0 -17 5t-11 15q-12 31 -30.5 44t-47.5 13q-40 0 -61.5 -26t-23.5 -80
q-1 -40 0 -71q3 -55 24 -80t61 -25q31 0 49 13.5t29 43.5q5 10 11 15t17 5h127q10 0 18 -7t7 -18q-1 -16 -10 -39t-28 -48t-49.5 -46t-73.5 -34.5t-100 -13.5zM238 595q-16 0 -16 16q0 8 5 13l88 107q10 12 17 15.5t20 3.5h132q19 0 19 -20q0 -7 -5 -12l-133 -109
q-8 -7 -16 -10.5t-22 -3.5h-89z" />
    <glyph glyph-name="Ccircumflex" unicode="&#x108;" horiz-adv-x="702" 
d="M357 -10q-94 0 -162 31t-105.5 91t-41.5 149q-1 41 -1 88t1 90q4 87 42 148t106 92t161 31q66 0 122 -16.5t98 -48t65.5 -76t24.5 -100.5q1 -9 -5.5 -15t-15.5 -6h-135q-13 0 -20 5.5t-12 20.5q-14 53 -45.5 72.5t-77.5 19.5q-55 0 -87 -30.5t-35 -101.5q-3 -82 0 -168
q3 -71 35 -101.5t87 -30.5q46 0 78 20t45 72q4 15 11.5 20.5t20.5 5.5h135q9 0 15.5 -6t5.5 -15q-1 -56 -24.5 -100.5t-65.5 -76t-98 -48t-122 -16.5zM180 750q-16 0 -16 14q0 8 8 16l103 108q10 11 17.5 14t17.5 3h85q10 0 17.5 -3t17.5 -14l102 -108q8 -8 8 -16
q0 -14 -15 -14h-51q-8 0 -17 1.5t-17 5.5l-88 49l-87 -49q-8 -4 -17 -5.5t-18 -1.5h-50z" />
    <glyph glyph-name="ccircumflex" unicode="&#x109;" horiz-adv-x="590" 
d="M298 -10q-74 0 -131 27t-90.5 78.5t-36.5 123.5q-1 16 -1 40.5t1 40.5q3 73 36 124.5t90.5 78.5t131.5 27q69 0 118.5 -19.5t80 -48.5t46 -59.5t16.5 -53.5q1 -10 -7 -17.5t-18 -7.5h-127q-11 0 -17 5t-11 15q-12 31 -30.5 44t-47.5 13q-40 0 -61.5 -26t-23.5 -80
q-1 -40 0 -71q3 -55 24 -80t61 -25q31 0 49 13.5t29 43.5q5 10 11 15t17 5h127q10 0 18 -7t7 -18q-1 -16 -10 -39t-28 -48t-49.5 -46t-73.5 -34.5t-100 -13.5zM127 595q-15 0 -15 14q0 8 7 16l103 108q10 11 17.5 14t17.5 3h79q10 0 17.5 -3t17.5 -14l102 -108q8 -8 8 -16
q0 -14 -15 -14h-48q-8 0 -17 1.5t-17 5.5l-88 49l-87 -49q-8 -4 -17 -5.5t-18 -1.5h-47z" />
    <glyph glyph-name="Cdotaccent" unicode="&#x10a;" horiz-adv-x="702" 
d="M357 -10q-94 0 -162 31t-105.5 91t-41.5 149q-1 41 -1 88t1 90q4 87 42 148t106 92t161 31q66 0 122 -16.5t98 -48t65.5 -76t24.5 -100.5q1 -9 -5.5 -15t-15.5 -6h-135q-13 0 -20 5.5t-12 20.5q-14 53 -45.5 72.5t-77.5 19.5q-55 0 -87 -30.5t-35 -101.5q-3 -82 0 -168
q3 -71 35 -101.5t87 -30.5q46 0 78 20t45 72q4 15 11.5 20.5t20.5 5.5h135q9 0 15.5 -6t5.5 -15q-1 -56 -24.5 -100.5t-65.5 -76t-98 -48t-122 -16.5zM300 750q-10 0 -16 6t-6 17v103q0 10 6 16.5t16 6.5h103q10 0 16.5 -6.5t6.5 -16.5v-103q0 -11 -6.5 -17t-16.5 -6h-103z
" />
    <glyph glyph-name="cdotaccent" unicode="&#x10b;" horiz-adv-x="590" 
d="M298 -10q-74 0 -131 27t-90.5 78.5t-36.5 123.5q-1 16 -1 40.5t1 40.5q3 73 36 124.5t90.5 78.5t131.5 27q69 0 118.5 -19.5t80 -48.5t46 -59.5t16.5 -53.5q1 -10 -7 -17.5t-18 -7.5h-127q-11 0 -17 5t-11 15q-12 31 -30.5 44t-47.5 13q-40 0 -61.5 -26t-23.5 -80
q-1 -40 0 -71q3 -55 24 -80t61 -25q31 0 49 13.5t29 43.5q5 10 11 15t17 5h127q10 0 18 -7t7 -18q-1 -16 -10 -39t-28 -48t-49.5 -46t-73.5 -34.5t-100 -13.5zM245 603q-10 0 -16 6.5t-6 16.5v100q0 10 6 16.5t16 6.5h100q10 0 16.5 -6.5t6.5 -16.5v-100q0 -10 -6.5 -16.5
t-16.5 -6.5h-100z" />
    <glyph glyph-name="Ccaron" unicode="&#x10c;" horiz-adv-x="702" 
d="M357 -10q-94 0 -162 31t-105.5 91t-41.5 149q-1 41 -1 88t1 90q4 87 42 148t106 92t161 31q66 0 122 -16.5t98 -48t65.5 -76t24.5 -100.5q1 -9 -5.5 -15t-15.5 -6h-135q-13 0 -20 5.5t-12 20.5q-14 53 -45.5 72.5t-77.5 19.5q-55 0 -87 -30.5t-35 -101.5q-3 -82 0 -168
q3 -71 35 -101.5t87 -30.5q46 0 78 20t45 72q4 15 11.5 20.5t20.5 5.5h135q9 0 15.5 -6t5.5 -15q-1 -56 -24.5 -100.5t-65.5 -76t-98 -48t-122 -16.5zM310 750q-10 0 -17.5 3.5t-17.5 13.5l-103 108q-8 8 -8 16q0 14 16 14h50q9 0 18 -1.5t17 -5.5l87 -49l88 49q8 4 17 5.5
t17 1.5h51q15 0 15 -14q0 -8 -8 -16l-102 -108q-10 -10 -17.5 -13.5t-17.5 -3.5h-85z" />
    <glyph glyph-name="ccaron" unicode="&#x10d;" horiz-adv-x="590" 
d="M298 -10q-74 0 -131 27t-90.5 78.5t-36.5 123.5q-1 16 -1 40.5t1 40.5q3 73 36 124.5t90.5 78.5t131.5 27q69 0 118.5 -19.5t80 -48.5t46 -59.5t16.5 -53.5q1 -10 -7 -17.5t-18 -7.5h-127q-11 0 -17 5t-11 15q-12 31 -30.5 44t-47.5 13q-40 0 -61.5 -26t-23.5 -80
q-1 -40 0 -71q3 -55 24 -80t61 -25q31 0 49 13.5t29 43.5q5 10 11 15t17 5h127q10 0 18 -7t7 -18q-1 -16 -10 -39t-28 -48t-49.5 -46t-73.5 -34.5t-100 -13.5zM257 595q-10 0 -17.5 3.5t-17.5 13.5l-103 108q-7 8 -7 16q0 14 15 14h47q9 0 18 -1.5t17 -5.5l87 -49l88 49
q8 4 17 5.5t17 1.5h48q15 0 15 -14q0 -8 -8 -16l-102 -108q-10 -10 -17.5 -13.5t-17.5 -3.5h-79z" />
    <glyph glyph-name="Dcaron" unicode="&#x10e;" horiz-adv-x="716" 
d="M95 0q-11 0 -18 7.5t-7 17.5v650q0 11 7 18t18 7h260q98 0 167 -31.5t106 -92t40 -149.5q1 -44 1 -77t-1 -76q-4 -93 -39.5 -154t-103 -90.5t-165.5 -29.5h-265zM250 144h105q43 0 71.5 13.5t43 42.5t15.5 76q2 29 2.5 52t0 46t-2.5 51q-2 68 -35.5 99.5t-99.5 31.5h-100
v-412zM313 750q-10 0 -17.5 3.5t-17.5 13.5l-103 108q-8 8 -8 16q0 14 16 14h50q9 0 18 -1.5t17 -5.5l87 -49l88 49q8 4 17 5.5t17 1.5h51q15 0 15 -14q0 -8 -8 -16l-102 -108q-10 -10 -17.5 -13.5t-17.5 -3.5h-85z" />
    <glyph glyph-name="dcaron" unicode="&#x10f;" horiz-adv-x="726" 
d="M253 -10q-48 0 -86.5 15.5t-66 46t-42.5 74t-17 99.5q-1 20 -1 35.5t1 35.5q2 53 17 96.5t42 74t66 47t87 16.5q50 0 86 -16.5t61 -42.5v214q0 11 7 18t18 7h122q10 0 17.5 -7t7.5 -18v-660q0 -10 -7.5 -17.5t-17.5 -7.5h-113q-11 0 -18 7.5t-7 17.5v32q-24 -29 -62 -48
t-94 -19zM308 124q33 0 52.5 14.5t29 37.5t10.5 50q1 20 1 38t-1 37q-1 25 -11 46.5t-30 35t-51 13.5q-33 0 -52.5 -14t-28 -38t-10.5 -53q-3 -31 0 -62q2 -29 10.5 -53t28 -38t52.5 -14zM644 525q-9 0 -14 6.5t-5 15.5l20 129q2 13 10.5 23.5t25.5 10.5h104q8 0 14 -6
t6 -14q0 -6 -3 -11l-49 -126q-4 -10 -12 -19t-25 -9h-72z" />
    <glyph glyph-name="Dcroat" unicode="&#x110;" horiz-adv-x="734" 
d="M112 0q-11 0 -18 7.5t-7 17.5v268h-47q-11 0 -18.5 7t-7.5 18v69q0 11 7.5 18t18.5 7h47v263q0 11 7 18t18 7h260q98 0 167 -31.5t106.5 -92t39.5 -149.5q2 -44 2 -77t-2 -76q-3 -93 -39.5 -154t-104.5 -90.5t-167 -29.5h-262zM267 144h105q44 0 72 13.5t43 42.5t16 76
q1 29 1.5 52t0 46t-1.5 51q-2 68 -34.5 99.5t-98.5 31.5h-103v-144h91q11 0 18 -7t7 -18v-69q0 -11 -7 -18t-18 -7h-91v-149z" />
    <glyph glyph-name="dcroat" unicode="&#x111;" horiz-adv-x="631" 
d="M254 -10q-52 0 -91 16.5t-65.5 48t-40.5 74.5t-16 96q-1 20 -1 35.5t1 35.5q2 50 16 93t40.5 74.5t65.5 49t91 17.5q49 0 85.5 -16.5t60.5 -42.5v86h-41q-10 0 -17.5 7t-7.5 18v37q0 11 7.5 18t17.5 7h41v41q0 11 7 18t18 7h122q11 0 18 -7t7 -18v-41h41q10 0 17.5 -7
t7.5 -18v-37q0 -11 -7.5 -18t-17.5 -7h-41v-532q0 -10 -7 -17.5t-18 -7.5h-113q-10 0 -17.5 7.5t-7.5 17.5v37q-23 -31 -61 -51.5t-94 -20.5zM308 124q33 0 53 14.5t29 37.5t10 50q2 20 2 38t-2 37q-1 25 -11 46.5t-29.5 35t-51.5 13.5q-33 0 -52.5 -14t-28 -38t-10.5 -53
q-2 -31 0 -62q2 -29 10.5 -53t28 -38t52.5 -14z" />
    <glyph glyph-name="Emacron" unicode="&#x112;" horiz-adv-x="639" 
d="M95 0q-11 0 -18 7.5t-7 17.5v650q0 11 7 18t18 7h467q11 0 18 -7t7 -18v-94q0 -11 -7 -18t-18 -7h-319v-135h297q11 0 18 -7.5t7 -18.5v-87q0 -10 -7 -17.5t-18 -7.5h-297v-139h327q11 0 18 -7t7 -18v-94q0 -10 -7 -17.5t-18 -7.5h-475zM164 750q-10 0 -16 6t-6 17v73
q0 10 6 16.5t16 6.5h310q11 0 17 -6.5t6 -16.5v-73q0 -11 -6 -17t-17 -6h-310z" />
    <glyph glyph-name="emacron" unicode="&#x113;" horiz-adv-x="594" 
d="M299 -10q-118 0 -188 64t-73 190v18v17q3 79 35.5 135.5t90 86t134.5 29.5q88 0 145.5 -35t86.5 -95t29 -137v-24q0 -11 -7 -18t-18 -7h-320v-3v-4q1 -29 10.5 -53t28 -38t45.5 -14q20 0 33.5 6.5t22.5 15t14 14.5q9 11 14.5 13.5t17.5 2.5h124q10 0 16.5 -6t5.5 -16
q-1 -17 -17 -41t-46.5 -47.5t-76.5 -38.5t-107 -15zM214 313h169v2q0 33 -9.5 56.5t-29 36.5t-46.5 13q-26 0 -45 -13t-29 -36.5t-10 -56.5v-2zM158 605q-10 0 -16 6t-6 17v70q0 10 6 16.5t16 6.5h279q10 0 16.5 -6.5t6.5 -16.5v-70q0 -11 -6.5 -17t-16.5 -6h-279z" />
    <glyph glyph-name="Ebreve" unicode="&#x114;" horiz-adv-x="639" 
d="M95 0q-11 0 -18 7.5t-7 17.5v650q0 11 7 18t18 7h467q11 0 18 -7t7 -18v-94q0 -11 -7 -18t-18 -7h-319v-135h297q11 0 18 -7.5t7 -18.5v-87q0 -10 -7 -17.5t-18 -7.5h-297v-139h327q11 0 18 -7t7 -18v-94q0 -10 -7 -17.5t-18 -7.5h-475zM320 743q-54 0 -88 19.5
t-49.5 51.5t-15.5 70q0 8 5 13.5t14 5.5h67q9 0 14 -5.5t5 -13.5q0 -23 9.5 -41t38.5 -18t39 18t10 41q0 8 5 13.5t14 5.5h67q9 0 14 -5.5t5 -13.5q0 -38 -15.5 -70t-49.5 -51.5t-89 -19.5z" />
    <glyph glyph-name="ebreve" unicode="&#x115;" horiz-adv-x="594" 
d="M299 -10q-118 0 -188 64t-73 190v18v17q3 79 35.5 135.5t90 86t134.5 29.5q88 0 145.5 -35t86.5 -95t29 -137v-24q0 -11 -7 -18t-18 -7h-320v-3v-4q1 -29 10.5 -53t28 -38t45.5 -14q20 0 33.5 6.5t22.5 15t14 14.5q9 11 14.5 13.5t17.5 2.5h124q10 0 16.5 -6t5.5 -16
q-1 -17 -17 -41t-46.5 -47.5t-76.5 -38.5t-107 -15zM214 313h169v2q0 33 -9.5 56.5t-29 36.5t-46.5 13q-26 0 -45 -13t-29 -36.5t-10 -56.5v-2zM298 590q-51 0 -84 19t-49 51t-16 71q0 8 5 13.5t14 5.5h65q9 0 14 -5.5t5 -13.5q0 -23 10 -41t36 -18q28 0 37.5 18t9.5 41
q0 8 5 13.5t14 5.5h64q9 0 14 -5.5t5 -13.5q0 -39 -16 -71t-49 -51t-84 -19z" />
    <glyph glyph-name="Edotaccent" unicode="&#x116;" horiz-adv-x="639" 
d="M95 0q-11 0 -18 7.5t-7 17.5v650q0 11 7 18t18 7h467q11 0 18 -7t7 -18v-94q0 -11 -7 -18t-18 -7h-319v-135h297q11 0 18 -7.5t7 -18.5v-87q0 -10 -7 -17.5t-18 -7.5h-297v-139h327q11 0 18 -7t7 -18v-94q0 -10 -7 -17.5t-18 -7.5h-475zM268 750q-10 0 -16 6t-6 17v103
q0 10 6 16.5t16 6.5h103q10 0 16.5 -6.5t6.5 -16.5v-103q0 -11 -6.5 -17t-16.5 -6h-103z" />
    <glyph glyph-name="edotaccent" unicode="&#x117;" horiz-adv-x="594" 
d="M299 -10q-118 0 -188 64t-73 190v18v17q3 79 35.5 135.5t90 86t134.5 29.5q88 0 145.5 -35t86.5 -95t29 -137v-24q0 -11 -7 -18t-18 -7h-320v-3v-4q1 -29 10.5 -53t28 -38t45.5 -14q20 0 33.5 6.5t22.5 15t14 14.5q9 11 14.5 13.5t17.5 2.5h124q10 0 16.5 -6t5.5 -16
q-1 -17 -17 -41t-46.5 -47.5t-76.5 -38.5t-107 -15zM214 313h169v2q0 33 -9.5 56.5t-29 36.5t-46.5 13q-26 0 -45 -13t-29 -36.5t-10 -56.5v-2zM247 603q-10 0 -16 6.5t-6 16.5v100q0 10 6 16.5t16 6.5h100q10 0 16.5 -6.5t6.5 -16.5v-100q0 -10 -6.5 -16.5t-16.5 -6.5h-100
z" />
    <glyph glyph-name="Eogonek" unicode="&#x118;" horiz-adv-x="639" 
d="M554 -220q-52 0 -87 21t-52.5 57t-17.5 81q0 17 3 32.5t8 28.5h-313q-11 0 -18 7.5t-7 17.5v650q0 11 7 18t18 7h467q11 0 18 -7t7 -18v-94q0 -11 -7 -18t-18 -7h-319v-135h297q11 0 18 -7.5t7 -18.5v-87q0 -10 -7 -17.5t-18 -7.5h-297v-139h327q11 0 18 -7t7 -18v-94
q0 -10 -7 -17.5t-18 -7.5h-14q-30 -1 -44 -19t-14 -42q0 -25 15 -43t45 -18h12q11 0 18 -7.5t7 -17.5v-48q0 -10 -7 -17.5t-18 -7.5h-16z" />
    <glyph glyph-name="eogonek" unicode="&#x119;" horiz-adv-x="595" 
d="M352 -220q-52 0 -87 21t-52.5 57t-17.5 81q0 36 11 62q-77 22 -121 83.5t-46 159.5q-1 7 -1 17t1 17q2 79 34.5 135.5t90 86.5t135.5 30q87 0 145 -35t87 -95t29 -137v-24q0 -11 -7.5 -18t-18.5 -7h-319v-7q0 -29 9.5 -53t28 -38t45.5 -14q20 0 33.5 6.5t22.5 15t14 14.5
q9 11 15 13.5t17 2.5h124q10 0 16.5 -6t5.5 -16q-1 -20 -22.5 -48.5t-62.5 -53.5t-103 -35q-31 -6 -46 -19.5t-15 -36.5q0 -25 14.5 -43t44.5 -18h12q11 0 18 -7.5t7 -17.5v-48q0 -10 -7 -17.5t-18 -7.5h-16zM214 313h169v2q0 33 -9.5 56.5t-29 36.5t-46.5 13q-26 0 -45 -13
t-29 -36.5t-10 -56.5v-2z" />
    <glyph glyph-name="Ecaron" unicode="&#x11a;" horiz-adv-x="639" 
d="M95 0q-11 0 -18 7.5t-7 17.5v650q0 11 7 18t18 7h467q11 0 18 -7t7 -18v-94q0 -11 -7 -18t-18 -7h-319v-135h297q11 0 18 -7.5t7 -18.5v-87q0 -10 -7 -17.5t-18 -7.5h-297v-139h327q11 0 18 -7t7 -18v-94q0 -10 -7 -17.5t-18 -7.5h-475zM278 750q-10 0 -17.5 3.5
t-17.5 13.5l-103 108q-8 8 -8 16q0 14 16 14h50q9 0 18 -1.5t17 -5.5l87 -49l88 49q8 4 17 5.5t17 1.5h51q15 0 15 -14q0 -8 -8 -16l-102 -108q-10 -10 -17.5 -13.5t-17.5 -3.5h-85z" />
    <glyph glyph-name="ecaron" unicode="&#x11b;" horiz-adv-x="594" 
d="M299 -10q-118 0 -188 64t-73 190v18v17q3 79 35.5 135.5t90 86t134.5 29.5q88 0 145.5 -35t86.5 -95t29 -137v-24q0 -11 -7 -18t-18 -7h-320v-3v-4q1 -29 10.5 -53t28 -38t45.5 -14q20 0 33.5 6.5t22.5 15t14 14.5q9 11 14.5 13.5t17.5 2.5h124q10 0 16.5 -6t5.5 -16
q-1 -17 -17 -41t-46.5 -47.5t-76.5 -38.5t-107 -15zM214 313h169v2q0 33 -9.5 56.5t-29 36.5t-46.5 13q-26 0 -45 -13t-29 -36.5t-10 -56.5v-2zM259 595q-10 0 -17.5 3.5t-17.5 13.5l-103 108q-7 8 -7 16q0 14 15 14h47q9 0 18 -1.5t17 -5.5l87 -49l88 49q8 4 17 5.5t17 1.5
h48q15 0 15 -14q0 -8 -8 -16l-102 -108q-10 -10 -17.5 -13.5t-17.5 -3.5h-79z" />
    <glyph glyph-name="Gcircumflex" unicode="&#x11c;" horiz-adv-x="720" 
d="M359 -10q-95 0 -163.5 31.5t-106 92t-41.5 147.5q-1 43 -1 91.5t1 92.5q4 85 42 144t107 90t162 31q75 0 133 -18.5t97.5 -49.5t60.5 -68t22 -73q0 -9 -6.5 -15t-15.5 -6h-146q-11 0 -16.5 3.5t-9.5 10.5q-7 15 -20.5 31.5t-37 28.5t-61.5 12q-56 0 -89 -30t-36 -96
q-3 -86 0 -174q3 -70 37 -101t91 -31q37 0 66.5 13t46.5 40.5t17 70.5v19h-94q-11 0 -18 7.5t-7 18.5v74q0 11 7 18.5t18 7.5h252q11 0 18 -7.5t7 -18.5v-114q0 -86 -39 -147t-110.5 -93.5t-166.5 -32.5zM191 750q-16 0 -16 14q0 8 8 16l103 108q10 11 17.5 14t17.5 3h85
q10 0 17.5 -3t17.5 -14l102 -108q8 -8 8 -16q0 -14 -15 -14h-51q-8 0 -17 1.5t-17 5.5l-88 49l-87 -49q-8 -4 -17 -5.5t-18 -1.5h-50z" />
    <glyph glyph-name="gcircumflex" unicode="&#x11d;" horiz-adv-x="634" 
d="M314 -220q-77 0 -127.5 20t-80 48t-42.5 55.5t-14 43.5q-1 11 7 18.5t19 7.5h127q10 0 16 -5t10 -16q6 -11 14 -22.5t23.5 -19.5t42.5 -8q30 0 50 9.5t30 31t10 57.5v67q-23 -25 -59 -40.5t-87 -15.5t-90 15t-65 45t-40.5 73t-17.5 99q-1 26 0 53q3 53 17 96.5t40.5 74
t65.5 47t90 16.5q54 0 92.5 -20.5t63.5 -51.5v37q0 10 7 17.5t18 7.5h115q11 0 18.5 -7.5t7.5 -17.5v-481q0 -76 -30.5 -128t-89 -79t-141.5 -27zM307 141q32 0 52 14t29.5 36t10.5 47q1 11 1 31t-1 30q-1 26 -10.5 48t-29.5 35.5t-52 13.5q-33 0 -52.5 -14t-28 -38
t-10.5 -53q-1 -22 0 -45q2 -29 10.5 -53t28 -38t52.5 -14zM139 595q-15 0 -15 14q0 8 7 16l103 108q10 11 17.5 14t17.5 3h79q10 0 17.5 -3t17.5 -14l102 -108q8 -8 8 -16q0 -14 -15 -14h-48q-8 0 -17 1.5t-17 5.5l-88 49l-87 -49q-8 -4 -17 -5.5t-18 -1.5h-47z" />
    <glyph glyph-name="Gbreve" unicode="&#x11e;" horiz-adv-x="720" 
d="M359 -10q-95 0 -163.5 31.5t-106 92t-41.5 147.5q-1 43 -1 91.5t1 92.5q4 85 42 144t107 90t162 31q75 0 133 -18.5t97.5 -49.5t60.5 -68t22 -73q0 -9 -6.5 -15t-15.5 -6h-146q-11 0 -16.5 3.5t-9.5 10.5q-7 15 -20.5 31.5t-37 28.5t-61.5 12q-56 0 -89 -30t-36 -96
q-3 -86 0 -174q3 -70 37 -101t91 -31q37 0 66.5 13t46.5 40.5t17 70.5v19h-94q-11 0 -18 7.5t-7 18.5v74q0 11 7 18.5t18 7.5h252q11 0 18 -7.5t7 -18.5v-114q0 -86 -39 -147t-110.5 -93.5t-166.5 -32.5zM363 743q-54 0 -88 19.5t-49.5 51.5t-15.5 70q0 8 5 13.5t14 5.5h67
q9 0 14 -5.5t5 -13.5q0 -23 9.5 -41t38.5 -18t39 18t10 41q0 8 5 13.5t14 5.5h67q9 0 14 -5.5t5 -13.5q0 -38 -15.5 -70t-49.5 -51.5t-89 -19.5z" />
    <glyph glyph-name="gbreve" unicode="&#x11f;" horiz-adv-x="634" 
d="M314 -220q-77 0 -127.5 20t-80 48t-42.5 55.5t-14 43.5q-1 11 7 18.5t19 7.5h127q10 0 16 -5t10 -16q6 -11 14 -22.5t23.5 -19.5t42.5 -8q30 0 50 9.5t30 31t10 57.5v67q-23 -25 -59 -40.5t-87 -15.5t-90 15t-65 45t-40.5 73t-17.5 99q-1 26 0 53q3 53 17 96.5t40.5 74
t65.5 47t90 16.5q54 0 92.5 -20.5t63.5 -51.5v37q0 10 7 17.5t18 7.5h115q11 0 18.5 -7.5t7.5 -17.5v-481q0 -76 -30.5 -128t-89 -79t-141.5 -27zM307 141q32 0 52 14t29.5 36t10.5 47q1 11 1 31t-1 30q-1 26 -10.5 48t-29.5 35.5t-52 13.5q-33 0 -52.5 -14t-28 -38
t-10.5 -53q-1 -22 0 -45q2 -29 10.5 -53t28 -38t52.5 -14zM309 590q-51 0 -84 19t-49 51t-16 71q0 8 5 13.5t14 5.5h65q9 0 14 -5.5t5 -13.5q0 -23 10 -41t36 -18q28 0 37.5 18t9.5 41q0 8 5 13.5t14 5.5h64q9 0 14 -5.5t5 -13.5q0 -39 -16 -71t-49 -51t-84 -19z" />
    <glyph glyph-name="Gdotaccent" unicode="&#x120;" horiz-adv-x="720" 
d="M359 -10q-95 0 -163.5 31.5t-106 92t-41.5 147.5q-1 43 -1 91.5t1 92.5q4 85 42 144t107 90t162 31q75 0 133 -18.5t97.5 -49.5t60.5 -68t22 -73q0 -9 -6.5 -15t-15.5 -6h-146q-11 0 -16.5 3.5t-9.5 10.5q-7 15 -20.5 31.5t-37 28.5t-61.5 12q-56 0 -89 -30t-36 -96
q-3 -86 0 -174q3 -70 37 -101t91 -31q37 0 66.5 13t46.5 40.5t17 70.5v19h-94q-11 0 -18 7.5t-7 18.5v74q0 11 7 18.5t18 7.5h252q11 0 18 -7.5t7 -18.5v-114q0 -86 -39 -147t-110.5 -93.5t-166.5 -32.5zM311 750q-10 0 -16 6t-6 17v103q0 10 6 16.5t16 6.5h103
q10 0 16.5 -6.5t6.5 -16.5v-103q0 -11 -6.5 -17t-16.5 -6h-103z" />
    <glyph glyph-name="gdotaccent" unicode="&#x121;" horiz-adv-x="634" 
d="M314 -220q-77 0 -127.5 20t-80 48t-42.5 55.5t-14 43.5q-1 11 7 18.5t19 7.5h127q10 0 16 -5t10 -16q6 -11 14 -22.5t23.5 -19.5t42.5 -8q30 0 50 9.5t30 31t10 57.5v67q-23 -25 -59 -40.5t-87 -15.5t-90 15t-65 45t-40.5 73t-17.5 99q-1 26 0 53q3 53 17 96.5t40.5 74
t65.5 47t90 16.5q54 0 92.5 -20.5t63.5 -51.5v37q0 10 7 17.5t18 7.5h115q11 0 18.5 -7.5t7.5 -17.5v-481q0 -76 -30.5 -128t-89 -79t-141.5 -27zM307 141q32 0 52 14t29.5 36t10.5 47q1 11 1 31t-1 30q-1 26 -10.5 48t-29.5 35.5t-52 13.5q-33 0 -52.5 -14t-28 -38
t-10.5 -53q-1 -22 0 -45q2 -29 10.5 -53t28 -38t52.5 -14zM258 603q-10 0 -16 6.5t-6 16.5v100q0 10 6 16.5t16 6.5h100q10 0 16.5 -6.5t6.5 -16.5v-100q0 -10 -6.5 -16.5t-16.5 -6.5h-100z" />
    <glyph glyph-name="uni0122" unicode="&#x122;" horiz-adv-x="720" 
d="M359 -10q-95 0 -163.5 31.5t-106 92t-41.5 147.5q-1 43 -1 91.5t1 92.5q4 85 42 144t107 90t162 31q75 0 133 -18.5t97.5 -49.5t60.5 -68t22 -73q0 -9 -6.5 -15t-15.5 -6h-146q-11 0 -16.5 3.5t-9.5 10.5q-7 15 -20.5 31.5t-37 28.5t-61.5 12q-56 0 -89 -30t-36 -96
q-3 -86 0 -174q3 -70 37 -101t91 -31q37 0 66.5 13t46.5 40.5t17 70.5v19h-94q-11 0 -18 7.5t-7 18.5v74q0 11 7 18.5t18 7.5h252q11 0 18 -7.5t7 -18.5v-114q0 -86 -39 -147t-110.5 -93.5t-166.5 -32.5zM277 -235q-9 0 -14 6.5t-5 15.5l19 129q2 13 11 23.5t26 10.5h111
q8 0 13.5 -6t5.5 -14q0 -6 -2 -11l-49 -126q-4 -10 -12 -19t-25 -9h-79z" />
    <glyph glyph-name="uni0123" unicode="&#x123;" horiz-adv-x="634" 
d="M314 -220q-77 0 -127.5 20t-80 48t-42.5 55.5t-14 43.5q-1 11 7 18.5t19 7.5h127q10 0 16 -5t10 -16q6 -11 14 -22.5t23.5 -19.5t42.5 -8q30 0 50 9.5t30 31t10 57.5v67q-23 -25 -59 -40.5t-87 -15.5t-90 15t-65 45t-40.5 73t-17.5 99q-1 26 0 53q3 53 17 96.5t40.5 74
t65.5 47t90 16.5q54 0 92.5 -20.5t63.5 -51.5v37q0 10 7 17.5t18 7.5h115q11 0 18.5 -7.5t7.5 -17.5v-481q0 -76 -30.5 -128t-89 -79t-141.5 -27zM307 141q32 0 52 14t29.5 36t10.5 47q1 11 1 31t-1 30q-1 26 -10.5 48t-29.5 35.5t-52 13.5q-33 0 -52.5 -14t-28 -38
t-10.5 -53q-1 -22 0 -45q2 -29 10.5 -53t28 -38t52.5 -14zM255 595q-8 0 -13.5 6t-5.5 14q0 6 2 11l50 126q4 10 12 19t24 9h73q8 0 13.5 -6.5t5.5 -15.5l-20 -128q-2 -13 -10.5 -24t-25.5 -11h-105z" />
    <glyph glyph-name="Hcircumflex" unicode="&#x124;" horiz-adv-x="745" 
d="M95 0q-11 0 -18 7t-7 18v650q0 11 7 18t18 7h129q11 0 18.5 -7t7.5 -18v-241h246v241q0 11 7 18t18 7h129q11 0 18 -7t7 -18v-650q0 -10 -7 -17.5t-18 -7.5h-129q-11 0 -18 7.5t-7 17.5v249h-246v-249q0 -10 -7.5 -17.5t-18.5 -7.5h-129zM200 750q-16 0 -16 14q0 8 8 16
l103 108q10 11 17.5 14t17.5 3h85q10 0 17.5 -3t17.5 -14l102 -108q8 -8 8 -16q0 -14 -15 -14h-51q-8 0 -17 1.5t-17 5.5l-88 49l-87 -49q-8 -4 -17 -5.5t-18 -1.5h-50z" />
    <glyph glyph-name="hcircumflex" unicode="&#x125;" horiz-adv-x="650" 
d="M84 0q-11 0 -18 7.5t-7 17.5v660q0 11 7 18t18 7h128q11 0 18 -7t7 -18v-223q27 31 66.5 49.5t91.5 18.5q58 0 103.5 -26t71.5 -76t26 -124v-279q0 -10 -7 -17.5t-18 -7.5h-129q-10 0 -17.5 7.5t-7.5 17.5v273q0 47 -22.5 72.5t-65.5 25.5q-42 0 -67 -25.5t-25 -72.5
v-273q0 -10 -7 -17.5t-18 -7.5h-128zM157 751q-15 0 -15 14q0 8 7 16l103 108q10 11 17.5 14t17.5 3h79q10 0 17.5 -3t17.5 -14l102 -108q8 -8 8 -16q0 -14 -15 -14h-48q-8 0 -17 1.5t-17 5.5l-88 49l-87 -49q-8 -4 -17 -5.5t-18 -1.5h-47z" />
    <glyph glyph-name="Hbar" unicode="&#x126;" horiz-adv-x="745" 
d="M71 518q-10 0 -17.5 7.5t-7.5 17.5v48q0 11 7.5 18t17.5 7h605q11 0 18.5 -7t7.5 -18v-48q0 -10 -7.5 -17.5t-18.5 -7.5h-605zM95 0q-11 0 -18 7t-7 18v650q0 11 7 18t18 7h129q11 0 18.5 -7t7.5 -18v-241h246v241q0 11 7 18t18 7h129q11 0 18 -7t7 -18v-650
q0 -10 -7 -17.5t-18 -7.5h-129q-11 0 -18 7.5t-7 17.5v249h-246v-249q0 -10 -7.5 -17.5t-18.5 -7.5h-129z" />
    <glyph glyph-name="hbar" unicode="&#x127;" horiz-adv-x="650" 
d="M21 550q-10 0 -17.5 7.5t-7.5 18.5v37q0 10 7.5 17.5t17.5 7.5h253q11 0 18.5 -7.5t7.5 -17.5v-37q0 -11 -7.5 -18.5t-18.5 -7.5h-253zM84 0q-11 0 -18 7.5t-7 17.5v660q0 11 7 18t18 7h128q11 0 18 -7t7 -18v-223q27 31 66.5 49.5t91.5 18.5q58 0 103.5 -26t71.5 -76
t26 -124v-279q0 -10 -7 -17.5t-18 -7.5h-129q-10 0 -17.5 7.5t-7.5 17.5v273q0 47 -22.5 72.5t-65.5 25.5q-42 0 -67 -25.5t-25 -72.5v-273q0 -10 -7 -17.5t-18 -7.5h-128z" />
    <glyph glyph-name="Itilde" unicode="&#x128;" horiz-adv-x="324" 
d="M95 0q-11 0 -18 7.5t-7 17.5v650q0 11 7 18t18 7h134q11 0 18.5 -7t7.5 -18v-650q0 -10 -7.5 -17.5t-18.5 -7.5h-134zM222 745q-27 0 -45 9t-32.5 17.5t-32.5 8.5q-13 0 -19.5 -7t-11.5 -15t-16 -8h-60q-7 0 -12 5.5t-5 11.5q0 16 5.5 38t19 42.5t35 34t52.5 13.5
q28 0 46 -9t33 -18t32 -9q14 0 19.5 8t10.5 15.5t16 7.5h60q9 0 13.5 -5.5t4.5 -12.5q0 -16 -6 -37.5t-19 -42t-35 -34t-53 -13.5z" />
    <glyph glyph-name="itilde" unicode="&#x129;" horiz-adv-x="286" 
d="M84 0q-11 0 -18 7.5t-7 17.5v470q0 11 7 18t18 7h118q11 0 18 -7t7 -18v-470q0 -10 -7 -17.5t-18 -7.5h-118zM203 590q-28 0 -45 9t-31 17.5t-32 8.5q-13 0 -19.5 -7t-11.5 -15t-16 -8h-60q-7 0 -12 5.5t-5 11.5q0 16 5.5 37.5t18.5 41.5t34.5 33.5t52.5 13.5
q28 0 45.5 -9t31.5 -17.5t31 -8.5q14 0 19.5 7.5l11 15t16.5 7.5h60q8 0 13 -5t5 -13q0 -16 -6 -37t-19 -41.5t-34.5 -33.5t-52.5 -13z" />
    <glyph glyph-name="Imacron" unicode="&#x12a;" horiz-adv-x="324" 
d="M95 0q-11 0 -18 7.5t-7 17.5v650q0 11 7 18t18 7h134q11 0 18.5 -7t7.5 -18v-650q0 -10 -7.5 -17.5t-18.5 -7.5h-134zM7 750q-10 0 -16 6t-6 17v73q0 10 6 16.5t16 6.5h310q11 0 17 -6.5t6 -16.5v-73q0 -11 -6 -17t-17 -6h-310z" />
    <glyph glyph-name="imacron" unicode="&#x12b;" horiz-adv-x="286" 
d="M84 0q-11 0 -18 7.5t-7 17.5v470q0 11 7 18t18 7h118q11 0 18 -7t7 -18v-470q0 -10 -7 -17.5t-18 -7.5h-118zM3 605q-10 0 -16 6t-6 17v70q0 10 6 16.5t16 6.5h279q10 0 16.5 -6.5t6.5 -16.5v-70q0 -11 -6.5 -17t-16.5 -6h-279z" />
    <glyph glyph-name="Ibreve" unicode="&#x12c;" horiz-adv-x="324" 
d="M95 0q-11 0 -18 7.5t-7 17.5v650q0 11 7 18t18 7h134q11 0 18.5 -7t7.5 -18v-650q0 -10 -7.5 -17.5t-18.5 -7.5h-134zM162 743q-54 0 -88 19.5t-49.5 51.5t-15.5 70q0 8 5 13.5t14 5.5h67q9 0 14 -5.5t5 -13.5q0 -23 9.5 -41t38.5 -18t39 18t10 41q0 8 5 13.5t14 5.5h67
q9 0 14 -5.5t5 -13.5q0 -38 -15.5 -70t-49.5 -51.5t-89 -19.5z" />
    <glyph glyph-name="ibreve" unicode="&#x12d;" horiz-adv-x="286" 
d="M84 0q-11 0 -18 7.5t-7 17.5v470q0 11 7 18t18 7h118q11 0 18 -7t7 -18v-470q0 -10 -7 -17.5t-18 -7.5h-118zM143 590q-51 0 -84 19t-49 51t-16 71q0 8 5 13.5t14 5.5h65q9 0 14 -5.5t5 -13.5q0 -23 10 -41t36 -18q28 0 37.5 18t9.5 41q0 8 5 13.5t14 5.5h64q9 0 14 -5.5
t5 -13.5q0 -39 -16 -71t-49 -51t-84 -19z" />
    <glyph glyph-name="Iogonek" unicode="&#x12e;" horiz-adv-x="331" 
d="M220 -221q-52 0 -87 20.5t-52.5 57t-17.5 81.5q0 31 12 52t33 31l-15 3q-7 1 -12 7t-5 14v630q0 11 7.5 18t18.5 7h134q11 0 18 -7t7 -18v-650q0 -10 -7 -17.5t-18 -7.5h-12q-30 0 -44.5 -19t-14.5 -43t14.5 -43t44.5 -19h12q11 0 18 -7t7 -18v-47q0 -11 -7 -18t-18 -7
h-16z" />
    <glyph glyph-name="iogonek" unicode="&#x12f;" horiz-adv-x="293" 
d="M198 -202q-75 0 -113 41t-38 105q0 28 11 47.5t30 28.5l-5 2q-7 1 -12 6.5t-5 12.5v454q0 11 7.5 18t18.5 7h118q10 0 17.5 -7t7.5 -18v-470q0 -10 -7.5 -17.5t-17.5 -7.5h-8q-31 0 -45.5 -15.5t-14.5 -40.5q0 -24 14.5 -39.5t45.5 -15.5h12q10 0 17.5 -7.5t7.5 -17.5
v-41q0 -11 -7.5 -18t-17.5 -7h-16zM91 595q-11 0 -18.5 7t-7.5 18v90q0 10 7.5 17.5t18.5 7.5h119q11 0 18.5 -7.5t7.5 -17.5v-90q0 -11 -7.5 -18t-18.5 -7h-119z" />
    <glyph glyph-name="Idotaccent" unicode="&#x130;" horiz-adv-x="324" 
d="M95 0q-11 0 -18 7.5t-7 17.5v650q0 11 7 18t18 7h134q11 0 18.5 -7t7.5 -18v-650q0 -10 -7.5 -17.5t-18.5 -7.5h-134zM110 750q-10 0 -16 6t-6 17v103q0 10 6 16.5t16 6.5h103q10 0 16.5 -6.5t6.5 -16.5v-103q0 -11 -6.5 -17t-16.5 -6h-103z" />
    <glyph glyph-name="dotlessi" unicode="&#x131;" horiz-adv-x="286" 
d="M84 0q-11 0 -18 7.5t-7 17.5v470q0 11 7 18t18 7h118q11 0 18 -7t7 -18v-470q0 -10 -7 -17.5t-18 -7.5h-118z" />
    <glyph glyph-name="IJ" unicode="&#x132;" horiz-adv-x="725" 
d="M360 -10q-11 0 -18 7.5t-7 17.5v106q0 11 7 18.5t18 7.5q59 0 87.5 34t28.5 101v393q0 11 7.5 18t17.5 7h135q11 0 18.5 -7t7.5 -18v-418q0 -96 -36.5 -155t-104 -85.5t-161.5 -26.5zM95 0q-11 0 -18 7.5t-7 17.5v650q0 11 7 18t18 7h134q11 0 18.5 -7t7.5 -18v-650
q0 -10 -7.5 -17.5t-18.5 -7.5h-134z" />
    <glyph glyph-name="ij" unicode="&#x133;" horiz-adv-x="616" 
d="M84 0q-11 0 -18 7.5t-7 17.5v470q0 11 7 18t18 7h118q11 0 18 -7t7 -18v-470q0 -10 -7 -17.5t-18 -7.5h-118zM83 595q-11 0 -18 7t-7 18v90q0 10 7 17.5t18 7.5h120q10 0 17.5 -7.5t7.5 -17.5v-90q0 -11 -7.5 -18t-17.5 -7h-120zM285 -190q-11 0 -18 7.5t-7 17.5v81
q0 11 7 18t18 7h37q25 0 38 9.5t18 26t5 37.5v481q0 11 7.5 18t17.5 7h124q11 0 18 -7t7 -18v-485q0 -65 -25.5 -109.5t-73.5 -67.5t-117 -23h-56zM407 595q-10 0 -17.5 7t-7.5 18v90q0 10 7.5 17.5t17.5 7.5h126q10 0 17.5 -7.5t7.5 -17.5v-90q0 -11 -7.5 -18t-17.5 -7
h-126z" />
    <glyph glyph-name="Jcircumflex" unicode="&#x134;" horiz-adv-x="671" 
d="M312 -10q-57 0 -108.5 14.5t-91.5 43.5t-63.5 72t-25.5 100q0 9 6 15.5t16 6.5h135q14 0 21.5 -7t12.5 -21q6 -28 19.5 -45.5t35 -26t48.5 -8.5q50 0 77 32.5t27 95.5v289h-324q-10 0 -17.5 7t-7.5 18v99q0 11 7.5 18t17.5 7h484q11 0 18.5 -7t7.5 -18v-418
q0 -87 -37.5 -146.5t-104 -90t-153.5 -30.5zM173 750q-16 0 -16 14q0 8 8 16l103 108q10 11 17.5 14t17.5 3h85q10 0 17.5 -3t17.5 -14l102 -108q8 -8 8 -16q0 -14 -15 -14h-51q-8 0 -17 1.5t-17 5.5l-88 49l-87 -49q-8 -4 -17 -5.5t-18 -1.5h-50z" />
    <glyph glyph-name="jcircumflex" unicode="&#x135;" horiz-adv-x="402" 
d="M43 -190q-11 0 -18 7.5t-7 17.5v103q0 11 7 18t18 7h64q25 0 38 9.5t18 26t5 37.5v348h-120q-10 0 -17.5 7t-7.5 18v86q0 11 7.5 18t17.5 7h270q11 0 18 -7t7 -18v-459q0 -69 -25.5 -119.5t-73.5 -78.5t-117 -28h-84zM25 595q-15 0 -15 14q0 8 7 16l103 108
q10 11 17.5 14t17.5 3h79q10 0 17.5 -3t17.5 -14l102 -108q8 -8 8 -16q0 -14 -15 -14h-48q-8 0 -17 1.5t-17 5.5l-88 49l-87 -49q-8 -4 -17 -5.5t-18 -1.5h-47z" />
    <glyph glyph-name="uni0136" unicode="&#x136;" horiz-adv-x="663" 
d="M95 0q-11 0 -18 7.5t-7 17.5v650q0 11 7 18t18 7h126q11 0 18 -7t7 -18v-222l185 228q4 6 13.5 12.5t25.5 6.5h144q9 0 15 -6.5t6 -14.5q0 -7 -3 -12l-240 -302l258 -332q4 -4 4 -12t-6 -14.5t-15 -6.5h-149q-18 0 -27.5 8t-12.5 12l-198 247v-242q0 -10 -7 -17.5
t-18 -7.5h-126zM249 -235q-9 0 -14 6.5t-5 15.5l19 129q2 13 11 23.5t26 10.5h111q8 0 13.5 -6t5.5 -14q0 -6 -2 -11l-49 -126q-4 -10 -12 -19t-25 -9h-79z" />
    <glyph glyph-name="uni0137" unicode="&#x137;" horiz-adv-x="585" 
d="M84 0q-11 0 -18 7.5t-7 17.5v660q0 11 7 18t18 7h116q10 0 17.5 -7t7.5 -18v-335l139 153q6 7 13 12t20 5h134q9 0 15.5 -6.5t6.5 -15.5q0 -4 -1.5 -9t-6.5 -8l-180 -194l205 -249q8 -8 8 -15q0 -10 -6.5 -16.5t-16.5 -6.5h-137q-15 0 -22 5.5t-13 11.5l-158 190v-182
q0 -10 -7.5 -17.5t-17.5 -7.5h-116zM208 -235q-9 0 -14 6.5t-5 15.5l20 129q2 13 10.5 23.5t25.5 10.5h104q8 0 14 -6t6 -14q0 -6 -3 -11l-49 -126q-4 -10 -12 -19t-25 -9h-72z" />
    <glyph glyph-name="kgreenlandic" unicode="&#x138;" horiz-adv-x="585" 
d="M84 0q-11 0 -18 7.5t-7 17.5v470q0 11 7 18t18 7h115q11 0 18.5 -7t7.5 -18v-174l147 182q7 7 14 12t20 5h126q10 0 16.5 -6.5t6.5 -15.5q0 -4 -2 -9t-6 -8l-177 -217l200 -226q7 -7 7 -15q0 -10 -6.5 -16.5t-15.5 -6.5h-138q-15 0 -22 6t-13 11l-157 179v-171
q0 -10 -7.5 -17.5t-18.5 -7.5h-115z" />
    <glyph glyph-name="Lacute" unicode="&#x139;" horiz-adv-x="597" 
d="M95 0q-11 0 -18 7.5t-7 17.5v650q0 11 7 18t18 7h132q11 0 18 -7t7 -18v-524h303q11 0 18 -7.5t7 -18.5v-100q0 -10 -7 -17.5t-18 -7.5h-460zM93 750q-16 0 -16 16q0 8 5 13l88 107q10 12 17 15.5t20 3.5h140q19 0 19 -20q0 -7 -5 -12l-133 -109q-8 -7 -16 -10.5
t-22 -3.5h-97z" />
    <glyph glyph-name="lacute" unicode="&#x13a;" horiz-adv-x="286" 
d="M84 0q-11 0 -18 7.5t-7 17.5v660q0 11 7 18t18 7h118q11 0 18 -7t7 -18v-660q0 -10 -7 -17.5t-18 -7.5h-118zM86 750q-16 0 -16 16q0 8 5 13l88 107q10 12 17 15.5t20 3.5h132q19 0 19 -20q0 -7 -5 -12l-133 -109q-8 -7 -16 -10.5t-22 -3.5h-89z" />
    <glyph glyph-name="uni013B" unicode="&#x13b;" horiz-adv-x="597" 
d="M95 0q-11 0 -18 7.5t-7 17.5v650q0 11 7 18t18 7h132q11 0 18 -7t7 -18v-524h303q11 0 18 -7.5t7 -18.5v-100q0 -10 -7 -17.5t-18 -7.5h-460zM222 -235q-9 0 -14 6.5t-5 15.5l19 129q2 13 11 23.5t26 10.5h111q8 0 13.5 -6t5.5 -14q0 -6 -2 -11l-49 -126q-4 -10 -12 -19
t-25 -9h-79z" />
    <glyph glyph-name="uni013C" unicode="&#x13c;" horiz-adv-x="286" 
d="M84 0q-11 0 -18 7.5t-7 17.5v660q0 11 7 18t18 7h118q11 0 18 -7t7 -18v-660q0 -10 -7 -17.5t-18 -7.5h-118zM59 -235q-9 0 -14 6.5t-5 15.5l20 129q2 13 10.5 23.5t25.5 10.5h104q8 0 14 -6t6 -14q0 -6 -3 -11l-49 -126q-4 -10 -12 -19t-25 -9h-72z" />
    <glyph glyph-name="Lcaron" unicode="&#x13d;" horiz-adv-x="597" 
d="M95 0q-11 0 -18 7.5t-7 17.5v650q0 11 7 18t18 7h132q11 0 18 -7t7 -18v-524h303q11 0 18 -7.5t7 -18.5v-100q0 -10 -7 -17.5t-18 -7.5h-460zM370 479q-9 0 -14 6.5t-5 15.5l20 129q2 13 10.5 23.5t25.5 10.5h104q8 0 14 -6t6 -14q0 -6 -3 -11l-49 -126q-4 -10 -12 -19
t-25 -9h-72z" />
    <glyph glyph-name="lcaron" unicode="&#x13e;" horiz-adv-x="384" 
d="M84 0q-11 0 -18 7.5t-7 17.5v660q0 11 7 18t18 7h118q11 0 18 -7t7 -18v-660q0 -10 -7 -17.5t-18 -7.5h-118zM298 525q-9 0 -14 6.5t-5 15.5l20 129q2 13 10.5 23.5t25.5 10.5h104q8 0 14 -6t6 -14q0 -6 -3 -11l-49 -126q-4 -10 -12 -19t-25 -9h-72z" />
    <glyph glyph-name="Ldot" unicode="&#x13f;" horiz-adv-x="602" 
d="M95 0q-11 0 -18 7.5t-7 17.5v650q0 11 7 18t18 7h132q11 0 18 -7t7 -18v-524h303q11 0 18 -7.5t7 -18.5v-100q0 -10 -7 -17.5t-18 -7.5h-460zM411 312q-11 0 -17 6t-6 16v100q0 10 6 16.5t17 6.5h99q10 0 16.5 -6.5t6.5 -16.5v-100q0 -10 -6.5 -16t-16.5 -6h-99z" />
    <glyph glyph-name="ldot" unicode="&#x140;" horiz-adv-x="420" 
d="M84 0q-11 0 -18 7.5t-7 17.5v660q0 11 7 18t18 7h118q11 0 18 -7t7 -18v-660q0 -10 -7 -17.5t-18 -7.5h-118zM303 288q-11 0 -17 6t-6 17v100q0 10 6 16.5t17 6.5h100q10 0 16.5 -6.5t6.5 -16.5v-100q0 -11 -6.5 -17t-16.5 -6h-100z" />
    <glyph glyph-name="Lslash" unicode="&#x141;" horiz-adv-x="605" 
d="M103 0q-11 0 -18 7.5t-7 17.5v225l-33 -12q-7 -3 -12 -3q-9 0 -14.5 5t-5.5 14v75q0 13 5 19.5t17 10.5l43 17v299q0 11 7 18t18 7h132q11 0 18 -7t7 -18v-227l145 56q8 3 12 3q8 0 14 -5.5t6 -14.5v-74q0 -13 -5 -19t-17 -11l-155 -61v-171h303q11 0 18 -7.5t7 -17.5
v-101q0 -10 -7 -17.5t-18 -7.5h-460z" />
    <glyph glyph-name="lslash" unicode="&#x142;" horiz-adv-x="343" 
d="M113 0q-11 0 -18 7.5t-7 17.5v237l-32 -12q-7 -3 -12 -3q-8 0 -14 5.5t-6 14.5v75q0 13 5 19.5t17 10.5l42 15v298q0 11 7 18t18 7h118q11 0 18 -7t7 -18v-232l32 12q8 3 12 3q8 0 14 -5.5t6 -14.5v-74q0 -12 -5 -18.5t-17 -11.5l-42 -17v-302q0 -10 -7 -17.5t-18 -7.5
h-118z" />
    <glyph glyph-name="Nacute" unicode="&#x143;" horiz-adv-x="719" 
d="M95 0q-11 0 -18 7.5t-7 17.5v650q0 11 7 18t18 7h106q17 0 24.5 -7.5t9.5 -11.5l244 -384v378q0 11 7 18t18 7h120q11 0 18 -7t7 -18v-649q0 -11 -7 -18.5t-18 -7.5h-107q-16 0 -23.5 8t-9.5 11l-244 370v-364q0 -10 -7 -17.5t-18 -7.5h-120zM297 750q-16 0 -16 16
q0 8 5 13l88 107q10 12 17 15.5t20 3.5h140q19 0 19 -20q0 -7 -5 -12l-133 -109q-8 -7 -16 -10.5t-22 -3.5h-97z" />
    <glyph glyph-name="nacute" unicode="&#x144;" horiz-adv-x="643" 
d="M84 0q-11 0 -18 7.5t-7 17.5v470q0 11 7 18t18 7h115q11 0 18.5 -7t7.5 -18v-38q25 31 67 52t99 21q58 0 102.5 -26t70 -76t25.5 -124v-279q0 -10 -7 -17.5t-18 -7.5h-126q-10 0 -17.5 7.5t-7.5 17.5v273q0 47 -22.5 72.5t-66.5 25.5q-41 0 -65.5 -25.5t-24.5 -72.5v-273
q0 -10 -7.5 -17.5t-17.5 -7.5h-125zM266 595q-16 0 -16 16q0 8 5 13l88 107q10 12 17 15.5t20 3.5h132q19 0 19 -20q0 -7 -5 -12l-133 -109q-8 -7 -16 -10.5t-22 -3.5h-89z" />
    <glyph glyph-name="uni0145" unicode="&#x145;" horiz-adv-x="719" 
d="M95 0q-11 0 -18 7.5t-7 17.5v650q0 11 7 18t18 7h106q17 0 24.5 -7.5t9.5 -11.5l244 -384v378q0 11 7 18t18 7h120q11 0 18 -7t7 -18v-649q0 -11 -7 -18.5t-18 -7.5h-107q-16 0 -23.5 8t-9.5 11l-244 370v-364q0 -10 -7 -17.5t-18 -7.5h-120zM275 -235q-9 0 -14 6.5
t-5 15.5l19 129q2 13 11 23.5t26 10.5h111q8 0 13.5 -6t5.5 -14q0 -6 -2 -11l-49 -126q-4 -10 -12 -19t-25 -9h-79z" />
    <glyph glyph-name="uni0146" unicode="&#x146;" horiz-adv-x="643" 
d="M84 0q-11 0 -18 7.5t-7 17.5v470q0 11 7 18t18 7h115q11 0 18.5 -7t7.5 -18v-38q25 31 67 52t99 21q58 0 102.5 -26t70 -76t25.5 -124v-279q0 -10 -7 -17.5t-18 -7.5h-126q-10 0 -17.5 7.5t-7.5 17.5v273q0 47 -22.5 72.5t-66.5 25.5q-41 0 -65.5 -25.5t-24.5 -72.5v-273
q0 -10 -7.5 -17.5t-17.5 -7.5h-125zM241 -235q-9 0 -14 6.5t-5 15.5l20 129q2 13 10.5 23.5t25.5 10.5h104q8 0 14 -6t6 -14q0 -6 -3 -11l-49 -126q-4 -10 -12 -19t-25 -9h-72z" />
    <glyph glyph-name="Ncaron" unicode="&#x147;" horiz-adv-x="719" 
d="M95 0q-11 0 -18 7.5t-7 17.5v650q0 11 7 18t18 7h106q17 0 24.5 -7.5t9.5 -11.5l244 -384v378q0 11 7 18t18 7h120q11 0 18 -7t7 -18v-649q0 -11 -7 -18.5t-18 -7.5h-107q-16 0 -23.5 8t-9.5 11l-244 370v-364q0 -10 -7 -17.5t-18 -7.5h-120zM317 750q-10 0 -17.5 3.5
t-17.5 13.5l-103 108q-8 8 -8 16q0 14 16 14h50q9 0 18 -1.5t17 -5.5l87 -49l88 49q8 4 17 5.5t17 1.5h51q15 0 15 -14q0 -8 -8 -16l-102 -108q-10 -10 -17.5 -13.5t-17.5 -3.5h-85z" />
    <glyph glyph-name="ncaron" unicode="&#x148;" horiz-adv-x="643" 
d="M84 0q-11 0 -18 7.5t-7 17.5v470q0 11 7 18t18 7h115q11 0 18.5 -7t7.5 -18v-38q25 31 67 52t99 21q58 0 102.5 -26t70 -76t25.5 -124v-279q0 -10 -7 -17.5t-18 -7.5h-126q-10 0 -17.5 7.5t-7.5 17.5v273q0 47 -22.5 72.5t-66.5 25.5q-41 0 -65.5 -25.5t-24.5 -72.5v-273
q0 -10 -7.5 -17.5t-17.5 -7.5h-125zM285 595q-10 0 -17.5 3.5t-17.5 13.5l-103 108q-7 8 -7 16q0 14 15 14h47q9 0 18 -1.5t17 -5.5l87 -49l88 49q8 4 17 5.5t17 1.5h48q15 0 15 -14q0 -8 -8 -16l-102 -108q-10 -10 -17.5 -13.5t-17.5 -3.5h-79z" />
    <glyph glyph-name="napostrophe" unicode="&#x149;" horiz-adv-x="643" 
d="M-42 562q-9 0 -14 6.5t-5 15.5l20 129q2 13 10.5 23.5t25.5 10.5h104q8 0 14 -6t6 -14q0 -6 -3 -11l-49 -126q-4 -10 -12 -19t-25 -9h-72zM84 0q-11 0 -18 7.5t-7 17.5v470q0 11 7 18t18 7h115q11 0 18.5 -7t7.5 -18v-38q25 31 67 52t99 21q58 0 102.5 -26t70 -76
t25.5 -124v-279q0 -10 -7 -17.5t-18 -7.5h-126q-10 0 -17.5 7.5t-7.5 17.5v273q0 47 -22.5 72.5t-66.5 25.5q-41 0 -65.5 -25.5t-24.5 -72.5v-273q0 -10 -7.5 -17.5t-17.5 -7.5h-125z" />
    <glyph glyph-name="Eng" unicode="&#x14a;" horiz-adv-x="719" 
d="M378 -225q-11 0 -18.5 7.5t-7.5 17.5v99q0 11 7.5 18t18.5 7h26q28 0 44 10.5t23.5 27.5t7.5 39v26l-239 362v-364q0 -10 -7 -17.5t-18 -7.5h-120q-11 0 -18 7.5t-7 17.5v650q0 11 7 18t18 7h106q17 0 24.5 -7.5t9.5 -11.5l244 -384v378q0 11 7 18t18 7h120q11 0 18 -7
t7 -18v-680q0 -71 -31.5 -120t-89.5 -74.5t-139 -25.5h-11z" />
    <glyph glyph-name="eng" unicode="&#x14b;" horiz-adv-x="643" 
d="M312 -225q-11 0 -18.5 7.5t-7.5 17.5v99q0 10 7.5 17.5t18.5 7.5h25q30 0 46 10t23 30.5t7 51.5v282q0 47 -22.5 72.5t-66.5 25.5q-41 0 -65.5 -25.5t-24.5 -72.5v-273q0 -10 -7.5 -17.5t-17.5 -7.5h-125q-11 0 -18 7.5t-7 17.5v470q0 11 7 18t18 7h115q11 0 18.5 -7
t7.5 -18v-38q25 31 67 52t99 21q58 0 102.5 -26t70 -76t25.5 -124v-295q0 -77 -31 -129t-89 -78.5t-138 -26.5h-19z" />
    <glyph glyph-name="Omacron" unicode="&#x14c;" horiz-adv-x="712" 
d="M356 -10q-92 0 -160 30t-106 90.5t-42 151.5q-1 43 -1 86.5t1 86.5q4 90 42.5 151.5t107 92.5t158.5 31q91 0 159 -31t107 -92.5t42 -151.5q2 -43 2 -86.5t-2 -86.5q-3 -91 -41.5 -151.5t-106.5 -90.5t-160 -30zM356 134q53 0 86.5 32t35.5 102q2 44 2 83t-2 81
q-2 47 -17.5 76.5t-42.5 43.5t-62 14q-34 0 -61 -14t-43 -43.5t-18 -76.5q-1 -42 -1 -81t1 -83q3 -70 36.5 -102t85.5 -32zM200 750q-10 0 -16 6t-6 17v73q0 10 6 16.5t16 6.5h310q11 0 17 -6.5t6 -16.5v-73q0 -11 -6 -17t-17 -6h-310z" />
    <glyph glyph-name="omacron" unicode="&#x14d;" horiz-adv-x="611" 
d="M305 -10q-84 0 -141.5 27t-88 77.5t-34.5 120.5q-1 20 -1 45.5t1 44.5q4 71 36 121t89.5 77t138.5 27q82 0 139.5 -27t89.5 -77t36 -121q1 -19 1 -44.5t-1 -45.5q-4 -70 -34.5 -120.5t-88 -77.5t-142.5 -27zM305 112q45 0 65.5 27t23.5 81q1 15 1 40t-1 40
q-3 53 -23.5 80.5t-65.5 27.5q-43 0 -64.5 -27.5t-23.5 -80.5q-1 -15 -1 -40t1 -40q2 -54 23.5 -81t64.5 -27zM165 605q-10 0 -16 6t-6 17v70q0 10 6 16.5t16 6.5h279q10 0 16.5 -6.5t6.5 -16.5v-70q0 -11 -6.5 -17t-16.5 -6h-279z" />
    <glyph glyph-name="Obreve" unicode="&#x14e;" horiz-adv-x="712" 
d="M356 -10q-92 0 -160 30t-106 90.5t-42 151.5q-1 43 -1 86.5t1 86.5q4 90 42.5 151.5t107 92.5t158.5 31q91 0 159 -31t107 -92.5t42 -151.5q2 -43 2 -86.5t-2 -86.5q-3 -91 -41.5 -151.5t-106.5 -90.5t-160 -30zM356 134q53 0 86.5 32t35.5 102q2 44 2 83t-2 81
q-2 47 -17.5 76.5t-42.5 43.5t-62 14q-34 0 -61 -14t-43 -43.5t-18 -76.5q-1 -42 -1 -81t1 -83q3 -70 36.5 -102t85.5 -32zM356 743q-54 0 -88 19.5t-49.5 51.5t-15.5 70q0 8 5 13.5t14 5.5h67q9 0 14 -5.5t5 -13.5q0 -23 9.5 -41t38.5 -18t39 18t10 41q0 8 5 13.5t14 5.5
h67q9 0 14 -5.5t5 -13.5q0 -38 -15.5 -70t-49.5 -51.5t-89 -19.5z" />
    <glyph glyph-name="obreve" unicode="&#x14f;" horiz-adv-x="611" 
d="M305 -10q-84 0 -141.5 27t-88 77.5t-34.5 120.5q-1 20 -1 45.5t1 44.5q4 71 36 121t89.5 77t138.5 27q82 0 139.5 -27t89.5 -77t36 -121q1 -19 1 -44.5t-1 -45.5q-4 -70 -34.5 -120.5t-88 -77.5t-142.5 -27zM305 112q45 0 65.5 27t23.5 81q1 15 1 40t-1 40
q-3 53 -23.5 80.5t-65.5 27.5q-43 0 -64.5 -27.5t-23.5 -80.5q-1 -15 -1 -40t1 -40q2 -54 23.5 -81t64.5 -27zM305 590q-51 0 -84 19t-49 51t-16 71q0 8 5 13.5t14 5.5h65q9 0 14 -5.5t5 -13.5q0 -23 10 -41t36 -18q28 0 37.5 18t9.5 41q0 8 5 13.5t14 5.5h64q9 0 14 -5.5
t5 -13.5q0 -39 -16 -71t-49 -51t-84 -19z" />
    <glyph glyph-name="Ohungarumlaut" unicode="&#x150;" horiz-adv-x="712" 
d="M356 -10q-92 0 -160 30t-106 90.5t-42 151.5q-1 43 -1 86.5t1 86.5q4 90 42.5 151.5t107 92.5t158.5 31q91 0 159 -31t107 -92.5t42 -151.5q2 -43 2 -86.5t-2 -86.5q-3 -91 -41.5 -151.5t-106.5 -90.5t-160 -30zM356 134q53 0 86.5 32t35.5 102q2 44 2 83t-2 81
q-2 47 -17.5 76.5t-42.5 43.5t-62 14q-34 0 -61 -14t-43 -43.5t-18 -76.5q-1 -42 -1 -81t1 -83q3 -70 36.5 -102t85.5 -32zM424 750q-16 0 -16 16q0 4 2 8t3 7l47 105q9 19 37 19h114q20 0 20 -19q0 -7 -6 -13l-98 -109q-12 -14 -33 -14h-70zM216 750q-16 0 -16 16q0 4 2 8
t3 7l47 105q9 19 37 19h113q20 0 20 -19q0 -7 -6 -13l-98 -109q-12 -14 -32 -14h-70z" />
    <glyph glyph-name="ohungarumlaut" unicode="&#x151;" horiz-adv-x="611" 
d="M305 -10q-84 0 -141.5 27t-88 77.5t-34.5 120.5q-1 20 -1 45.5t1 44.5q4 71 36 121t89.5 77t138.5 27q82 0 139.5 -27t89.5 -77t36 -121q1 -19 1 -44.5t-1 -45.5q-4 -70 -34.5 -120.5t-88 -77.5t-142.5 -27zM305 112q45 0 65.5 27t23.5 81q1 15 1 40t-1 40
q-3 53 -23.5 80.5t-65.5 27.5q-43 0 -64.5 -27.5t-23.5 -80.5q-1 -15 -1 -40t1 -40q2 -54 23.5 -81t64.5 -27zM364 595q-16 0 -16 16q0 4 2 8t3 7l48 105q9 19 37 19h105q20 0 20 -19q0 -7 -6 -13l-98 -109q-12 -14 -33 -14h-62zM151 595q-16 0 -16 16q0 4 2 8t3 7l47 105
q9 19 37 19h105q20 0 20 -19q0 -7 -6 -13l-98 -109q-12 -14 -32 -14h-62z" />
    <glyph glyph-name="OE" unicode="&#x152;" horiz-adv-x="964" 
d="M356 0q-98 0 -165.5 29.5t-103.5 90.5t-39 154q-1 43 -1 76t1 77q3 89 40 149.5t106 92t167 31.5h525q11 0 18.5 -7t7.5 -18v-94q0 -11 -7.5 -18t-18.5 -7h-291v-135h269q11 0 18.5 -7.5t7.5 -18.5v-87q0 -10 -7.5 -17.5t-18.5 -7.5h-269v-139h299q11 0 18.5 -7t7.5 -18
v-94q0 -10 -7.5 -17.5t-18.5 -7.5h-538zM361 144h61v412h-56q-66 0 -99.5 -31.5t-35.5 -99.5q-1 -28 -1.5 -51t0 -46t1.5 -52q2 -47 16 -76t42.5 -42.5t71.5 -13.5z" />
    <glyph glyph-name="oe" unicode="&#x153;" horiz-adv-x="951" 
d="M306 -10q-85 0 -142.5 27t-88 77.5t-34.5 120.5q-1 20 -1 45.5t1 44.5q4 71 36 121t89.5 77t139.5 27q59 0 104.5 -17t76.5 -47q30 30 73 47t96 17q88 0 145.5 -35t86.5 -95t29 -137v-24q0 -11 -7 -18t-18 -7h-320v-7q1 -29 10.5 -53t28 -38t45.5 -14q19 0 32 6.5t22 15
t14 14.5q9 11 14.5 13.5t17.5 2.5h124q10 0 16.5 -6t5.5 -16q-1 -17 -17 -41t-46 -47.5t-76 -38.5t-106 -15q-54 0 -97.5 16t-74.5 46q-30 -29 -74.5 -45.5t-104.5 -16.5zM306 112q44 0 65 27t23 81q1 15 1 40t-1 40q-2 53 -23 80.5t-65 27.5t-65 -27.5t-24 -80.5
q-1 -15 -1 -40t1 -40q3 -54 24 -81t65 -27zM572 313h169v2q0 33 -9.5 56.5t-29 36.5t-46.5 13q-26 0 -45 -13t-29 -36.5t-10 -56.5v-2z" />
    <glyph glyph-name="Racute" unicode="&#x154;" horiz-adv-x="691" 
d="M95 0q-11 0 -18 7.5t-7 17.5v650q0 11 7 18t18 7h272q130 0 204 -59.5t74 -168.5q0 -71 -34 -120t-90 -74l137 -246q3 -6 3 -11q0 -8 -6.5 -14.5t-14.5 -6.5h-133q-19 0 -28 9.5t-13 17.5l-114 220h-102v-222q0 -10 -7.5 -17.5t-18.5 -7.5h-129zM250 389h115
q47 0 70.5 23t23.5 62t-22.5 63t-71.5 24h-115v-172zM263 750q-16 0 -16 16q0 8 5 13l88 107q10 12 17 15.5t20 3.5h140q19 0 19 -20q0 -7 -5 -12l-133 -109q-8 -7 -16 -10.5t-22 -3.5h-97z" />
    <glyph glyph-name="racute" unicode="&#x155;" horiz-adv-x="454" 
d="M84 0q-11 0 -18 7.5t-7 17.5v470q0 10 7 17.5t18 7.5h115q11 0 18.5 -7.5t7.5 -17.5v-40q26 31 63.5 48t84.5 17h44q11 0 18 -7t7 -18v-103q0 -10 -7 -17.5t-18 -7.5h-97q-41 0 -63.5 -22.5t-22.5 -63.5v-256q0 -10 -7.5 -17.5t-18.5 -7.5h-124zM187 595q-16 0 -16 16
q0 8 5 13l88 107q10 12 17 15.5t20 3.5h132q19 0 19 -20q0 -7 -5 -12l-133 -109q-8 -7 -16 -10.5t-22 -3.5h-89z" />
    <glyph glyph-name="uni0156" unicode="&#x156;" horiz-adv-x="691" 
d="M95 0q-11 0 -18 7.5t-7 17.5v650q0 11 7 18t18 7h272q130 0 204 -59.5t74 -168.5q0 -71 -34 -120t-90 -74l137 -246q3 -6 3 -11q0 -8 -6.5 -14.5t-14.5 -6.5h-133q-19 0 -28 9.5t-13 17.5l-114 220h-102v-222q0 -10 -7.5 -17.5t-18.5 -7.5h-129zM250 389h115
q47 0 70.5 23t23.5 62t-22.5 63t-71.5 24h-115v-172zM264 -235q-9 0 -14 6.5t-5 15.5l19 129q2 13 11 23.5t26 10.5h111q8 0 13.5 -6t5.5 -14q0 -6 -2 -11l-49 -126q-4 -10 -12 -19t-25 -9h-79z" />
    <glyph glyph-name="uni0157" unicode="&#x157;" horiz-adv-x="454" 
d="M84 0q-11 0 -18 7.5t-7 17.5v470q0 10 7 17.5t18 7.5h115q11 0 18.5 -7.5t7.5 -17.5v-40q26 31 63.5 48t84.5 17h44q11 0 18 -7t7 -18v-103q0 -10 -7 -17.5t-18 -7.5h-97q-41 0 -63.5 -22.5t-22.5 -63.5v-256q0 -10 -7.5 -17.5t-18.5 -7.5h-124zM60 -235q-9 0 -14 6.5
t-5 15.5l20 129q2 13 10.5 23.5t25.5 10.5h104q8 0 14 -6t6 -14q0 -6 -3 -11l-49 -126q-4 -10 -12 -19t-25 -9h-72z" />
    <glyph glyph-name="Rcaron" unicode="&#x158;" horiz-adv-x="691" 
d="M95 0q-11 0 -18 7.5t-7 17.5v650q0 11 7 18t18 7h272q130 0 204 -59.5t74 -168.5q0 -71 -34 -120t-90 -74l137 -246q3 -6 3 -11q0 -8 -6.5 -14.5t-14.5 -6.5h-133q-19 0 -28 9.5t-13 17.5l-114 220h-102v-222q0 -10 -7.5 -17.5t-18.5 -7.5h-129zM250 389h115
q47 0 70.5 23t23.5 62t-22.5 63t-71.5 24h-115v-172zM283 750q-10 0 -17.5 3.5t-17.5 13.5l-103 108q-8 8 -8 16q0 14 16 14h50q9 0 18 -1.5t17 -5.5l87 -49l88 49q8 4 17 5.5t17 1.5h51q15 0 15 -14q0 -8 -8 -16l-102 -108q-10 -10 -17.5 -13.5t-17.5 -3.5h-85z" />
    <glyph glyph-name="rcaron" unicode="&#x159;" horiz-adv-x="454" 
d="M84 0q-11 0 -18 7.5t-7 17.5v470q0 10 7 17.5t18 7.5h115q11 0 18.5 -7.5t7.5 -17.5v-40q26 31 63.5 48t84.5 17h44q11 0 18 -7t7 -18v-103q0 -10 -7 -17.5t-18 -7.5h-97q-41 0 -63.5 -22.5t-22.5 -63.5v-256q0 -10 -7.5 -17.5t-18.5 -7.5h-124zM206 595q-10 0 -17.5 3.5
t-17.5 13.5l-103 108q-7 8 -7 16q0 14 15 14h47q9 0 18 -1.5t17 -5.5l87 -49l88 49q8 4 17 5.5t17 1.5h48q15 0 15 -14q0 -8 -8 -16l-102 -108q-10 -10 -17.5 -13.5t-17.5 -3.5h-79z" />
    <glyph glyph-name="Sacute" unicode="&#x15a;" horiz-adv-x="663" 
d="M331 -10q-100 0 -166 28.5t-100 74.5t-36 98q0 8 6.5 14.5t15.5 6.5h126q14 0 21.5 -5t13.5 -13q8 -15 22.5 -29t38.5 -22.5t58 -8.5q58 0 87.5 18t29.5 49q0 23 -16 37t-51.5 25.5t-94.5 23.5q-76 16 -129.5 41.5t-81.5 67t-28 103.5q0 61 34.5 109t96.5 75t147 27
q69 0 121.5 -18t88.5 -48t54.5 -63.5t19.5 -65.5q0 -8 -5.5 -14.5t-15.5 -6.5h-132q-11 0 -19 4t-14 13q-6 22 -31.5 38.5t-66.5 16.5q-44 0 -68.5 -15.5t-24.5 -47.5q0 -20 13.5 -35t45 -26t86.5 -23q91 -17 147 -42.5t82.5 -66t26.5 -101.5q0 -68 -39 -117t-106.5 -75.5
t-156.5 -26.5zM270 750q-16 0 -16 16q0 8 5 13l88 107q10 12 17 15.5t20 3.5h140q19 0 19 -20q0 -7 -5 -12l-133 -109q-8 -7 -16 -10.5t-22 -3.5h-97z" />
    <glyph glyph-name="sacute" unicode="&#x15b;" horiz-adv-x="553" 
d="M273 -10q-65 0 -110.5 14.5t-74 35.5t-42.5 43.5t-15 39.5q-1 11 7 18t17 7h114q3 0 5.5 -1t5.5 -4q13 -7 26 -17.5t30 -18.5t41 -8q28 0 47 11.5t19 32.5q0 16 -9 26.5t-36.5 20.5t-82.5 20q-52 12 -91 31.5t-60 51t-21 76.5q0 40 26 77t76 60.5t124 23.5
q57 0 100 -13.5t72 -34.5t44 -43t16 -40q1 -10 -6 -17.5t-16 -7.5h-104q-4 0 -8 1.5t-7 3.5q-12 6 -24 16t-28 18t-40 8q-27 0 -42 -12t-15 -31q0 -13 8.5 -24t35 -20t82.5 -20q69 -11 110 -35.5t58.5 -57t17.5 -68.5q0 -48 -29 -85t-84.5 -57.5t-136.5 -20.5zM218 595
q-16 0 -16 16q0 8 5 13l88 107q10 12 17 15.5t20 3.5h132q19 0 19 -20q0 -7 -5 -12l-133 -109q-8 -7 -16 -10.5t-22 -3.5h-89z" />
    <glyph glyph-name="Scircumflex" unicode="&#x15c;" horiz-adv-x="663" 
d="M331 -10q-100 0 -166 28.5t-100 74.5t-36 98q0 8 6.5 14.5t15.5 6.5h126q14 0 21.5 -5t13.5 -13q8 -15 22.5 -29t38.5 -22.5t58 -8.5q58 0 87.5 18t29.5 49q0 23 -16 37t-51.5 25.5t-94.5 23.5q-76 16 -129.5 41.5t-81.5 67t-28 103.5q0 61 34.5 109t96.5 75t147 27
q69 0 121.5 -18t88.5 -48t54.5 -63.5t19.5 -65.5q0 -8 -5.5 -14.5t-15.5 -6.5h-132q-11 0 -19 4t-14 13q-6 22 -31.5 38.5t-66.5 16.5q-44 0 -68.5 -15.5t-24.5 -47.5q0 -20 13.5 -35t45 -26t86.5 -23q91 -17 147 -42.5t82.5 -66t26.5 -101.5q0 -68 -39 -117t-106.5 -75.5
t-156.5 -26.5zM160 750q-16 0 -16 14q0 8 8 16l103 108q10 11 17.5 14t17.5 3h85q10 0 17.5 -3t17.5 -14l102 -108q8 -8 8 -16q0 -14 -15 -14h-51q-8 0 -17 1.5t-17 5.5l-88 49l-87 -49q-8 -4 -17 -5.5t-18 -1.5h-50z" />
    <glyph glyph-name="scircumflex" unicode="&#x15d;" horiz-adv-x="553" 
d="M273 -10q-65 0 -110.5 14.5t-74 35.5t-42.5 43.5t-15 39.5q-1 11 7 18t17 7h114q3 0 5.5 -1t5.5 -4q13 -7 26 -17.5t30 -18.5t41 -8q28 0 47 11.5t19 32.5q0 16 -9 26.5t-36.5 20.5t-82.5 20q-52 12 -91 31.5t-60 51t-21 76.5q0 40 26 77t76 60.5t124 23.5
q57 0 100 -13.5t72 -34.5t44 -43t16 -40q1 -10 -6 -17.5t-16 -7.5h-104q-4 0 -8 1.5t-7 3.5q-12 6 -24 16t-28 18t-40 8q-27 0 -42 -12t-15 -31q0 -13 8.5 -24t35 -20t82.5 -20q69 -11 110 -35.5t58.5 -57t17.5 -68.5q0 -48 -29 -85t-84.5 -57.5t-136.5 -20.5zM106 595
q-15 0 -15 14q0 8 7 16l103 108q10 11 17.5 14t17.5 3h79q10 0 17.5 -3t17.5 -14l102 -108q8 -8 8 -16q0 -14 -15 -14h-48q-8 0 -17 1.5t-17 5.5l-88 49l-87 -49q-8 -4 -17 -5.5t-18 -1.5h-47z" />
    <glyph glyph-name="Scedilla" unicode="&#x15e;" horiz-adv-x="663" 
d="M329 -220q-27 0 -49 9t-31 21t1 21l18 16q9 8 15.5 5.5t16.5 -8t29 -5.5q15 0 24 8.5t9 21.5q0 12 -9 20.5t-24 8.5q-12 0 -22 -3.5t-18.5 -4t-16.5 5.5l-19 20q-6 6 -5.5 13t6.5 19l20 45q-80 8 -134.5 37.5t-82 71.5t-28.5 89q0 8 6.5 14.5t15.5 6.5h126q14 0 21.5 -5
t13.5 -13q8 -15 22.5 -29t38.5 -22.5t58 -8.5q58 0 87.5 18t29.5 49q0 23 -16 37t-51.5 25.5t-94.5 23.5q-76 16 -129.5 41.5t-81.5 67t-28 103.5q0 61 34.5 109t96.5 75t147 27q69 0 121.5 -18t88.5 -48t54.5 -63.5t19.5 -65.5q0 -8 -5.5 -14.5t-15.5 -6.5h-132
q-11 0 -19 4t-14 13q-6 22 -31.5 38.5t-66.5 16.5q-44 0 -68.5 -15.5t-24.5 -47.5q0 -20 13.5 -35t45 -26t86.5 -23q91 -17 147 -42.5t82.5 -66t26.5 -101.5q0 -68 -38.5 -117t-106 -75t-155.5 -27l-19 -40q6 3 16.5 4.5t16.5 1.5q36 0 57.5 -24t21.5 -63q0 -38 -26 -63.5
t-71 -25.5z" />
    <glyph glyph-name="scedilla" unicode="&#x15f;" horiz-adv-x="553" 
d="M284 -220q-26 0 -48 9t-31 21t1 21l18 16q9 8 15.5 5.5t16.5 -8t28 -5.5q16 0 25 8.5t9 21.5q0 12 -9 20.5t-25 8.5q-11 0 -21.5 -3.5t-18.5 -4t-16 5.5l-19 20q-6 6 -5.5 13t6.5 19l19 45q-70 8 -113.5 31t-63.5 51t-21 48q-1 11 7 18t17 7h109q4 0 6.5 -1t6.5 -4
q15 -7 27.5 -17.5t30 -18.5t42.5 -8q28 0 47 11.5t19 32.5q0 16 -9 26.5t-36.5 20.5t-82.5 20q-52 12 -91 31.5t-60 51t-21 76.5q0 40 26 77t76 60.5t124 23.5q57 0 100 -13.5t72 -34.5t44 -43t16 -40q1 -10 -6 -17.5t-16 -7.5h-105q-5 0 -8 1.5t-6 3.5q-12 6 -24 16t-28 18
t-40 8q-27 0 -42 -12t-15 -31q0 -13 8.5 -24t35 -20t82.5 -20q69 -11 110 -35.5t58.5 -57t17.5 -68.5q0 -70 -60.5 -114.5t-173.5 -48.5l-20 -40q6 3 16.5 4.5t16.5 1.5q37 0 58.5 -24t21.5 -63q0 -38 -26 -63.5t-72 -25.5z" />
    <glyph glyph-name="Scaron" unicode="&#x160;" horiz-adv-x="663" 
d="M331 -10q-100 0 -166 28.5t-100 74.5t-36 98q0 8 6.5 14.5t15.5 6.5h126q14 0 21.5 -5t13.5 -13q8 -15 22.5 -29t38.5 -22.5t58 -8.5q58 0 87.5 18t29.5 49q0 23 -16 37t-51.5 25.5t-94.5 23.5q-76 16 -129.5 41.5t-81.5 67t-28 103.5q0 61 34.5 109t96.5 75t147 27
q69 0 121.5 -18t88.5 -48t54.5 -63.5t19.5 -65.5q0 -8 -5.5 -14.5t-15.5 -6.5h-132q-11 0 -19 4t-14 13q-6 22 -31.5 38.5t-66.5 16.5q-44 0 -68.5 -15.5t-24.5 -47.5q0 -20 13.5 -35t45 -26t86.5 -23q91 -17 147 -42.5t82.5 -66t26.5 -101.5q0 -68 -39 -117t-106.5 -75.5
t-156.5 -26.5zM290 750q-10 0 -17.5 3.5t-17.5 13.5l-103 108q-8 8 -8 16q0 14 16 14h50q9 0 18 -1.5t17 -5.5l87 -49l88 49q8 4 17 5.5t17 1.5h51q15 0 15 -14q0 -8 -8 -16l-102 -108q-10 -10 -17.5 -13.5t-17.5 -3.5h-85z" />
    <glyph glyph-name="scaron" unicode="&#x161;" horiz-adv-x="553" 
d="M273 -10q-65 0 -110.5 14.5t-74 35.5t-42.5 43.5t-15 39.5q-1 11 7 18t17 7h114q3 0 5.5 -1t5.5 -4q13 -7 26 -17.5t30 -18.5t41 -8q28 0 47 11.5t19 32.5q0 16 -9 26.5t-36.5 20.5t-82.5 20q-52 12 -91 31.5t-60 51t-21 76.5q0 40 26 77t76 60.5t124 23.5
q57 0 100 -13.5t72 -34.5t44 -43t16 -40q1 -10 -6 -17.5t-16 -7.5h-104q-4 0 -8 1.5t-7 3.5q-12 6 -24 16t-28 18t-40 8q-27 0 -42 -12t-15 -31q0 -13 8.5 -24t35 -20t82.5 -20q69 -11 110 -35.5t58.5 -57t17.5 -68.5q0 -48 -29 -85t-84.5 -57.5t-136.5 -20.5zM236 595
q-10 0 -17.5 3.5t-17.5 13.5l-103 108q-7 8 -7 16q0 14 15 14h47q9 0 18 -1.5t17 -5.5l87 -49l88 49q8 4 17 5.5t17 1.5h48q15 0 15 -14q0 -8 -8 -16l-102 -108q-10 -10 -17.5 -13.5t-17.5 -3.5h-79z" />
    <glyph glyph-name="Tcaron" unicode="&#x164;" horiz-adv-x="630" 
d="M249 0q-11 0 -18 7.5t-7 17.5v518h-178q-11 0 -18 7.5t-7 17.5v107q0 11 7 18t18 7h538q11 0 18 -7t7 -18v-107q0 -10 -7 -17.5t-18 -7.5h-178v-518q0 -10 -7 -17.5t-18 -7.5h-132zM273 750q-10 0 -17.5 3.5t-17.5 13.5l-103 108q-8 8 -8 16q0 14 16 14h50q9 0 18 -1.5
t17 -5.5l87 -49l88 49q8 4 17 5.5t17 1.5h51q15 0 15 -14q0 -8 -8 -16l-102 -108q-10 -10 -17.5 -13.5t-17.5 -3.5h-85z" />
    <glyph glyph-name="tcaron" unicode="&#x165;" horiz-adv-x="467" 
d="M325 0q-64 0 -110.5 20.5t-71.5 64t-25 112.5v192h-78q-11 0 -18.5 7t-7.5 18v81q0 11 7.5 18t18.5 7h78v165q0 11 7.5 18t17.5 7h116q11 0 18 -7t7 -18v-165h125q11 0 18.5 -7t7.5 -18v-81q0 -11 -7.5 -18t-18.5 -7h-125v-178q0 -34 13 -54t44 -20h77q11 0 18 -7t7 -18
v-87q0 -10 -7 -17.5t-18 -7.5h-93zM367 610q-9 0 -14 6.5t-5 15.5l20 129q2 13 10.5 23.5t25.5 10.5h104q8 0 14 -6t6 -14q0 -6 -3 -11l-49 -126q-4 -10 -12 -19t-25 -9h-72z" />
    <glyph glyph-name="Tbar" unicode="&#x166;" horiz-adv-x="639" 
d="M253 0q-10 0 -17.5 7.5t-7.5 17.5v268h-100q-11 0 -18 7t-7 18v50q0 11 7 18t18 7h100v150h-178q-10 0 -17.5 7.5t-7.5 17.5v107q0 11 7.5 18t17.5 7h538q11 0 18.5 -7t7.5 -18v-107q0 -10 -7.5 -17.5t-18.5 -7.5h-177v-150h100q11 0 18 -7t7 -18v-50q0 -11 -7 -18
t-18 -7h-100v-268q0 -10 -7.5 -17.5t-18.5 -7.5h-132z" />
    <glyph glyph-name="tbar" unicode="&#x167;" horiz-adv-x="471" 
d="M328 0q-65 0 -111.5 20.5t-71 64t-24.5 112.5v83h-79q-11 0 -18 7t-7 18v37q0 11 7 18t18 7h79v66h-79q-11 0 -18 7t-7 18v37q0 11 7 18t18 7h79v165q0 11 7 18t18 7h116q10 0 17.5 -7t7.5 -18v-165h125q11 0 18 -7t7 -18v-37q0 -11 -7 -18t-18 -7h-125v-66h125
q11 0 18 -7t7 -18v-37q0 -11 -7 -18t-18 -7h-125v-69q0 -34 13 -54t44 -20h77q10 0 17.5 -7t7.5 -18v-87q0 -10 -7.5 -17.5t-17.5 -7.5h-93z" />
    <glyph glyph-name="Utilde" unicode="&#x168;" horiz-adv-x="725" 
d="M364 -10q-91 0 -158.5 29.5t-104.5 91t-37 156.5v408q0 11 7 18t18 7h129q11 0 18.5 -7t7.5 -18v-407q0 -65 31 -97.5t88 -32.5q56 0 87.5 32.5t31.5 97.5v407q0 11 7.5 18t17.5 7h130q10 0 17.5 -7t7.5 -18v-408q0 -95 -37 -156.5t-104 -91t-157 -29.5zM423 745
q-27 0 -45 9t-32.5 17.5t-32.5 8.5q-13 0 -19.5 -7t-11.5 -15t-16 -8h-60q-7 0 -12 5.5t-5 11.5q0 16 5.5 38t19 42.5t35 34t52.5 13.5q28 0 46 -9t33 -18t32 -9q14 0 19.5 8t10.5 15.5t16 7.5h60q9 0 13.5 -5.5t4.5 -12.5q0 -16 -6 -37.5t-19 -42t-35 -34t-53 -13.5z" />
    <glyph glyph-name="utilde" unicode="&#x169;" horiz-adv-x="641" 
d="M250 -10q-57 0 -101.5 26t-69.5 76.5t-25 123.5v279q0 11 7 18t18 7h125q11 0 18.5 -7t7.5 -18v-273q0 -98 87 -98q41 0 65.5 25.5t24.5 72.5v273q0 11 7 18t18 7h125q11 0 18 -7t7 -18v-470q0 -10 -7 -17.5t-18 -7.5h-116q-10 0 -17.5 7.5t-7.5 17.5v38
q-26 -36 -67.5 -54.5t-98.5 -18.5zM379 590q-28 0 -45 9t-31 17.5t-32 8.5q-13 0 -19.5 -7t-11.5 -15t-16 -8h-60q-7 0 -12 5.5t-5 11.5q0 16 5.5 37.5t18.5 41.5t34.5 33.5t52.5 13.5q28 0 45.5 -9t31.5 -17.5t31 -8.5q14 0 19.5 7.5l11 15t16.5 7.5h60q8 0 13 -5t5 -13
q0 -16 -6 -37t-19 -41.5t-34.5 -33.5t-52.5 -13z" />
    <glyph glyph-name="Umacron" unicode="&#x16a;" horiz-adv-x="725" 
d="M364 -10q-91 0 -158.5 29.5t-104.5 91t-37 156.5v408q0 11 7 18t18 7h129q11 0 18.5 -7t7.5 -18v-407q0 -65 31 -97.5t88 -32.5q56 0 87.5 32.5t31.5 97.5v407q0 11 7.5 18t17.5 7h130q10 0 17.5 -7t7.5 -18v-408q0 -95 -37 -156.5t-104 -91t-157 -29.5zM207 750
q-10 0 -16 6t-6 17v73q0 10 6 16.5t16 6.5h310q11 0 17 -6.5t6 -16.5v-73q0 -11 -6 -17t-17 -6h-310z" />
    <glyph glyph-name="umacron" unicode="&#x16b;" horiz-adv-x="641" 
d="M250 -10q-57 0 -101.5 26t-69.5 76.5t-25 123.5v279q0 11 7 18t18 7h125q11 0 18.5 -7t7.5 -18v-273q0 -98 87 -98q41 0 65.5 25.5t24.5 72.5v273q0 11 7 18t18 7h125q11 0 18 -7t7 -18v-470q0 -10 -7 -17.5t-18 -7.5h-116q-10 0 -17.5 7.5t-7.5 17.5v38
q-26 -36 -67.5 -54.5t-98.5 -18.5zM179 605q-10 0 -16 6t-6 17v70q0 10 6 16.5t16 6.5h279q10 0 16.5 -6.5t6.5 -16.5v-70q0 -11 -6.5 -17t-16.5 -6h-279z" />
    <glyph glyph-name="Ubreve" unicode="&#x16c;" horiz-adv-x="725" 
d="M364 -10q-91 0 -158.5 29.5t-104.5 91t-37 156.5v408q0 11 7 18t18 7h129q11 0 18.5 -7t7.5 -18v-407q0 -65 31 -97.5t88 -32.5q56 0 87.5 32.5t31.5 97.5v407q0 11 7.5 18t17.5 7h130q10 0 17.5 -7t7.5 -18v-408q0 -95 -37 -156.5t-104 -91t-157 -29.5zM363 743
q-54 0 -88 19.5t-49.5 51.5t-15.5 70q0 8 5 13.5t14 5.5h67q9 0 14 -5.5t5 -13.5q0 -23 9.5 -41t38.5 -18t39 18t10 41q0 8 5 13.5t14 5.5h67q9 0 14 -5.5t5 -13.5q0 -38 -15.5 -70t-49.5 -51.5t-89 -19.5z" />
    <glyph glyph-name="ubreve" unicode="&#x16d;" horiz-adv-x="641" 
d="M250 -10q-57 0 -101.5 26t-69.5 76.5t-25 123.5v279q0 11 7 18t18 7h125q11 0 18.5 -7t7.5 -18v-273q0 -98 87 -98q41 0 65.5 25.5t24.5 72.5v273q0 11 7 18t18 7h125q11 0 18 -7t7 -18v-470q0 -10 -7 -17.5t-18 -7.5h-116q-10 0 -17.5 7.5t-7.5 17.5v38
q-26 -36 -67.5 -54.5t-98.5 -18.5zM319 590q-51 0 -84 19t-49 51t-16 71q0 8 5 13.5t14 5.5h65q9 0 14 -5.5t5 -13.5q0 -23 10 -41t36 -18q28 0 37.5 18t9.5 41q0 8 5 13.5t14 5.5h64q9 0 14 -5.5t5 -13.5q0 -39 -16 -71t-49 -51t-84 -19z" />
    <glyph glyph-name="Uring" unicode="&#x16e;" horiz-adv-x="725" 
d="M364 -10q-91 0 -158.5 29.5t-104.5 91t-37 156.5v408q0 11 7 18t18 7h129q11 0 18.5 -7t7.5 -18v-407q0 -65 31 -97.5t88 -32.5q56 0 87.5 32.5t31.5 97.5v407q0 11 7.5 18t17.5 7h130q10 0 17.5 -7t7.5 -18v-408q0 -95 -37 -156.5t-104 -91t-157 -29.5zM363 740
q-38 0 -65 25t-27 63t27 62.5t65 24.5t65.5 -24.5t27.5 -62.5t-27.5 -63t-65.5 -25zM363 798q13 0 21.5 8.5t8.5 21.5t-8.5 21.5t-21.5 8.5t-21.5 -8.5t-8.5 -21.5t8.5 -21.5t21.5 -8.5z" />
    <glyph glyph-name="uring" unicode="&#x16f;" horiz-adv-x="641" 
d="M250 -10q-57 0 -101.5 26t-69.5 76.5t-25 123.5v279q0 11 7 18t18 7h125q11 0 18.5 -7t7.5 -18v-273q0 -98 87 -98q41 0 65.5 25.5t24.5 72.5v273q0 11 7 18t18 7h125q11 0 18 -7t7 -18v-470q0 -10 -7 -17.5t-18 -7.5h-116q-10 0 -17.5 7.5t-7.5 17.5v38
q-26 -36 -67.5 -54.5t-98.5 -18.5zM319 590q-38 0 -65 25t-27 63t27 62.5t65 24.5t65.5 -24.5t27.5 -62.5t-27.5 -63t-65.5 -25zM319 648q13 0 21.5 8.5t8.5 21.5t-8.5 21.5t-21.5 8.5t-21.5 -8.5t-8.5 -21.5t8.5 -21.5t21.5 -8.5z" />
    <glyph glyph-name="Uhungarumlaut" unicode="&#x170;" horiz-adv-x="725" 
d="M364 -10q-91 0 -158.5 29.5t-104.5 91t-37 156.5v408q0 11 7 18t18 7h129q11 0 18.5 -7t7.5 -18v-407q0 -65 31 -97.5t88 -32.5q56 0 87.5 32.5t31.5 97.5v407q0 11 7.5 18t17.5 7h130q10 0 17.5 -7t7.5 -18v-408q0 -95 -37 -156.5t-104 -91t-157 -29.5zM431 750
q-16 0 -16 16q0 4 2 8t3 7l47 105q9 19 37 19h114q20 0 20 -19q0 -7 -6 -13l-98 -109q-12 -14 -33 -14h-70zM223 750q-16 0 -16 16q0 4 2 8t3 7l47 105q9 19 37 19h113q20 0 20 -19q0 -7 -6 -13l-98 -109q-12 -14 -32 -14h-70z" />
    <glyph glyph-name="uhungarumlaut" unicode="&#x171;" horiz-adv-x="641" 
d="M250 -10q-57 0 -101.5 26t-69.5 76.5t-25 123.5v279q0 11 7 18t18 7h125q11 0 18.5 -7t7.5 -18v-273q0 -98 87 -98q41 0 65.5 25.5t24.5 72.5v273q0 11 7 18t18 7h125q11 0 18 -7t7 -18v-470q0 -10 -7 -17.5t-18 -7.5h-116q-10 0 -17.5 7.5t-7.5 17.5v38
q-26 -36 -67.5 -54.5t-98.5 -18.5zM378 595q-16 0 -16 16q0 4 2 8t3 7l48 105q9 19 37 19h105q20 0 20 -19q0 -7 -6 -13l-98 -109q-12 -14 -33 -14h-62zM165 595q-16 0 -16 16q0 4 2 8t3 7l47 105q9 19 37 19h105q20 0 20 -19q0 -7 -6 -13l-98 -109q-12 -14 -32 -14h-62z
" />
    <glyph glyph-name="Uogonek" unicode="&#x172;" horiz-adv-x="725" 
d="M439 -220q-52 0 -87 21t-52.5 57t-17.5 81q0 17 2 31t6 26q-104 15 -165 81t-61 190v408q0 11 7 18t18 7h129q11 0 18.5 -7t7.5 -18v-407q0 -65 31 -97.5t88 -32.5q56 0 87.5 32.5t31.5 97.5v407q0 11 7.5 18t17.5 7h130q10 0 17.5 -7t7.5 -18v-408q0 -83 -28 -139
t-79 -88.5t-120 -44.5q-27 -5 -39.5 -19t-12.5 -37q0 -25 15 -43t45 -18h12q11 0 18 -7.5t7 -17.5v-48q0 -10 -7 -17.5t-18 -7.5h-16z" />
    <glyph glyph-name="uogonek" unicode="&#x173;" horiz-adv-x="641" 
d="M545 -220q-49 0 -82 20t-50.5 55.5t-17.5 80.5q0 17 5.5 31.5t13.5 26.5t15 19q-5 2 -9 7.5t-4 12.5v30q-26 -36 -67.5 -54.5t-98.5 -18.5t-101.5 26t-69.5 76.5t-25 123.5v279q0 11 7 18t18 7h125q11 0 18.5 -7t7.5 -18v-273q0 -98 87 -98q41 0 65.5 25.5t24.5 72.5v273
q0 11 7 18t18 7h125q11 0 18 -7t7 -18v-470q0 -9 -6 -16t-17 -9l-11 -1q-27 -6 -39 -23.5t-12 -39.5q0 -25 12 -41.5t40 -16.5h8q11 0 18 -7.5t7 -17.5v-48q0 -10 -7 -17.5t-18 -7.5h-12z" />
    <glyph glyph-name="Wcircumflex" unicode="&#x174;" horiz-adv-x="831" 
d="M182 0q-17 0 -27 10t-12 23l-109 639q-1 3 -1 4.5v2.5q0 8 6.5 14.5t14.5 6.5h124q28 0 31 -22l65 -390l72 230q3 8 10 17.5t23 9.5h72q17 0 24 -9.5t9 -17.5l72 -230l65 390q3 22 31 22h124q9 0 15.5 -6.5t6.5 -14.5q0 -1 -0.5 -2.5t-0.5 -4.5l-109 -639q-2 -13 -12 -23
t-27 -10h-95q-17 0 -26 9t-12 17l-101 286l-101 -286q-3 -8 -11.5 -17t-25.5 -9h-95zM243 750q-16 0 -16 14q0 8 8 16l103 108q10 11 17.5 14t17.5 3h85q10 0 17.5 -3t17.5 -14l102 -108q8 -8 8 -16q0 -14 -15 -14h-51q-8 0 -17 1.5t-17 5.5l-88 49l-87 -49q-8 -4 -17 -5.5
t-18 -1.5h-50z" />
    <glyph glyph-name="wcircumflex" unicode="&#x175;" horiz-adv-x="838" 
d="M204 0q-15 0 -22 7.5t-11 17.5l-144 463q-2 5 -2 10q0 9 7 15.5t16 6.5h103q13 0 20.5 -7t9.5 -14l84 -286l90 285q2 7 9.5 14.5t21.5 7.5h66q14 0 22 -7.5t9 -14.5l90 -285l84 286q2 7 9.5 14t20.5 7h103q9 0 16 -6.5t7 -15.5q0 -5 -2 -10l-144 -463q-3 -10 -10.5 -17.5
t-22.5 -7.5h-90q-14 0 -22 7.5t-11 17.5l-92 274l-92 -274q-3 -10 -11 -17.5t-22 -7.5h-90zM250 595q-15 0 -15 14q0 8 7 16l103 108q10 11 17.5 14t17.5 3h79q10 0 17.5 -3t17.5 -14l102 -108q8 -8 8 -16q0 -14 -15 -14h-48q-8 0 -17 1.5t-17 5.5l-88 49l-87 -49
q-8 -4 -17 -5.5t-18 -1.5h-47z" />
    <glyph glyph-name="Ycircumflex" unicode="&#x176;" horiz-adv-x="681" 
d="M275 0q-10 0 -17.5 7.5t-7.5 17.5v215l-232 428q-1 3 -2 5.5t-1 5.5q0 8 6.5 14.5t15.5 6.5h125q15 0 23.5 -7.5t11.5 -13.5l143 -258l144 258q3 6 11.5 13.5t23.5 7.5h125q9 0 15 -6.5t6 -14.5q0 -3 -0.5 -5.5t-1.5 -5.5l-232 -428v-215q0 -10 -7.5 -17.5t-18.5 -7.5
h-130zM168 750q-16 0 -16 14q0 8 8 16l103 108q10 11 17.5 14t17.5 3h85q10 0 17.5 -3t17.5 -14l102 -108q8 -8 8 -16q0 -14 -15 -14h-51q-8 0 -17 1.5t-17 5.5l-88 49l-87 -49q-8 -4 -17 -5.5t-18 -1.5h-50z" />
    <glyph glyph-name="ycircumflex" unicode="&#x177;" horiz-adv-x="597" 
d="M156 -190q-9 0 -15 6t-6 15q0 2 0.5 5.5t2.5 7.5l78 188l-192 454q-3 7 -3 12q2 9 8 15.5t15 6.5h114q13 0 19.5 -6.5t9.5 -14.5l114 -291l117 291q4 8 10.5 14.5t19.5 6.5h112q9 0 15.5 -6.5t6.5 -14.5q0 -5 -3 -13l-283 -655q-3 -8 -10 -14.5t-20 -6.5h-110zM131 595
q-15 0 -15 14q0 8 7 16l103 108q10 11 17.5 14t17.5 3h79q10 0 17.5 -3t17.5 -14l102 -108q8 -8 8 -16q0 -14 -15 -14h-48q-8 0 -17 1.5t-17 5.5l-88 49l-87 -49q-8 -4 -17 -5.5t-18 -1.5h-47z" />
    <glyph glyph-name="Ydieresis" unicode="&#x178;" horiz-adv-x="681" 
d="M275 0q-10 0 -17.5 7.5t-7.5 17.5v215l-232 428q-1 3 -2 5.5t-1 5.5q0 8 6.5 14.5t15.5 6.5h125q15 0 23.5 -7.5t11.5 -13.5l143 -258l144 258q3 6 11.5 13.5t23.5 7.5h125q9 0 15 -6.5t6 -14.5q0 -3 -0.5 -5.5t-1.5 -5.5l-232 -428v-215q0 -10 -7.5 -17.5t-18.5 -7.5
h-130zM413 750q-10 0 -16.5 6t-6.5 17v91q0 10 6.5 16.5t16.5 6.5h92q10 0 16.5 -6.5t6.5 -16.5v-91q0 -11 -6.5 -17t-16.5 -6h-92zM176 750q-10 0 -16 6t-6 17v91q0 10 6 16.5t16 6.5h92q10 0 16.5 -6.5t6.5 -16.5v-91q0 -11 -6.5 -17t-16.5 -6h-92z" />
    <glyph glyph-name="Zacute" unicode="&#x179;" horiz-adv-x="650" 
d="M63 0q-11 0 -18 7.5t-7 18.5v97q0 14 5.5 23t9.5 13l322 392h-303q-10 0 -17.5 7t-7.5 18v99q0 11 7.5 18t17.5 7h505q11 0 18 -7t7 -18v-97q0 -11 -3.5 -19t-9.5 -15l-313 -393h312q11 0 18.5 -7.5t7.5 -18.5v-100q0 -10 -7.5 -17.5t-18.5 -7.5h-525zM254 750
q-16 0 -16 16q0 8 5 13l88 107q10 12 17 15.5t20 3.5h140q19 0 19 -20q0 -7 -5 -12l-133 -109q-8 -7 -16 -10.5t-22 -3.5h-97z" />
    <glyph glyph-name="zacute" unicode="&#x17a;" horiz-adv-x="553" 
d="M63 0q-10 0 -17.5 7.5t-7.5 17.5v78q0 11 4.5 19.5t11.5 14.5l234 254h-216q-11 0 -18.5 7t-7.5 18v79q0 11 7.5 18t18.5 7h402q10 0 17.5 -7t7.5 -18v-85q0 -9 -4 -16t-10 -14l-228 -251h237q11 0 18.5 -7t7.5 -18v-79q0 -10 -7.5 -17.5t-18.5 -7.5h-431zM220 595
q-16 0 -16 16q0 8 5 13l88 107q10 12 17 15.5t20 3.5h132q19 0 19 -20q0 -7 -5 -12l-133 -109q-8 -7 -16 -10.5t-22 -3.5h-89z" />
    <glyph glyph-name="Zdotaccent" unicode="&#x17b;" horiz-adv-x="650" 
d="M63 0q-11 0 -18 7.5t-7 18.5v97q0 14 5.5 23t9.5 13l322 392h-303q-10 0 -17.5 7t-7.5 18v99q0 11 7.5 18t17.5 7h505q11 0 18 -7t7 -18v-97q0 -11 -3.5 -19t-9.5 -15l-313 -393h312q11 0 18.5 -7.5t7.5 -18.5v-100q0 -10 -7.5 -17.5t-18.5 -7.5h-525zM264 750
q-10 0 -16 6t-6 17v103q0 10 6 16.5t16 6.5h103q10 0 16.5 -6.5t6.5 -16.5v-103q0 -11 -6.5 -17t-16.5 -6h-103z" />
    <glyph glyph-name="zdotaccent" unicode="&#x17c;" horiz-adv-x="553" 
d="M63 0q-10 0 -17.5 7.5t-7.5 17.5v78q0 11 4.5 19.5t11.5 14.5l234 254h-216q-11 0 -18.5 7t-7.5 18v79q0 11 7.5 18t18.5 7h402q10 0 17.5 -7t7.5 -18v-85q0 -9 -4 -16t-10 -14l-228 -251h237q11 0 18.5 -7t7.5 -18v-79q0 -10 -7.5 -17.5t-18.5 -7.5h-431zM227 603
q-10 0 -16 6.5t-6 16.5v100q0 10 6 16.5t16 6.5h100q10 0 16.5 -6.5t6.5 -16.5v-100q0 -10 -6.5 -16.5t-16.5 -6.5h-100z" />
    <glyph glyph-name="Zcaron" unicode="&#x17d;" horiz-adv-x="650" 
d="M63 0q-11 0 -18 7.5t-7 18.5v97q0 14 5.5 23t9.5 13l322 392h-303q-10 0 -17.5 7t-7.5 18v99q0 11 7.5 18t17.5 7h505q11 0 18 -7t7 -18v-97q0 -11 -3.5 -19t-9.5 -15l-313 -393h312q11 0 18.5 -7.5t7.5 -18.5v-100q0 -10 -7.5 -17.5t-18.5 -7.5h-525zM274 750
q-10 0 -17.5 3.5t-17.5 13.5l-103 108q-8 8 -8 16q0 14 16 14h50q9 0 18 -1.5t17 -5.5l87 -49l88 49q8 4 17 5.5t17 1.5h51q15 0 15 -14q0 -8 -8 -16l-102 -108q-10 -10 -17.5 -13.5t-17.5 -3.5h-85z" />
    <glyph glyph-name="zcaron" unicode="&#x17e;" horiz-adv-x="553" 
d="M63 0q-10 0 -17.5 7.5t-7.5 17.5v78q0 11 4.5 19.5t11.5 14.5l234 254h-216q-11 0 -18.5 7t-7.5 18v79q0 11 7.5 18t18.5 7h402q10 0 17.5 -7t7.5 -18v-85q0 -9 -4 -16t-10 -14l-228 -251h237q11 0 18.5 -7t7.5 -18v-79q0 -10 -7.5 -17.5t-18.5 -7.5h-431zM238 595
q-10 0 -17.5 3.5t-17.5 13.5l-103 108q-7 8 -7 16q0 14 15 14h47q9 0 18 -1.5t17 -5.5l87 -49l88 49q8 4 17 5.5t17 1.5h48q15 0 15 -14q0 -8 -8 -16l-102 -108q-10 -10 -17.5 -13.5t-17.5 -3.5h-79z" />
    <glyph glyph-name="longs" unicode="&#x17f;" horiz-adv-x="344" 
d="M144 0q-11 0 -18 7.5t-7 17.5v364h-77q-10 0 -17.5 7t-7.5 18v81q0 11 7.5 18t17.5 7h77v30q0 69 26.5 111t75.5 60.5t117 18.5h78q10 0 17.5 -7t7.5 -18v-81q0 -11 -7.5 -18t-17.5 -7h-71q-24 0 -37 -8t-18 -21.5t-5 -32.5v-522q0 -10 -7.5 -17.5t-17.5 -7.5h-116z" />
    <glyph glyph-name="florin" unicode="&#x192;" horiz-adv-x="474" 
d="M28 -225q-10 0 -17.5 7.5t-7.5 17.5v99q0 10 7.5 17.5t17.5 7.5h28q29 0 45 10t23 30.5t7 51.5v373h-76q-11 0 -18 7t-7 18v81q0 11 7 18t18 7h76v32q0 68 26.5 109.5t76 60t116.5 18.5h78q11 0 18 -7t7 -18v-81q0 -11 -7 -18t-18 -7h-70q-34 0 -47.5 -16t-13.5 -46v-27
h120q11 0 18.5 -7t7.5 -18v-81q0 -11 -7.5 -18t-18.5 -7h-120v-380q0 -77 -26 -129t-79 -78.5t-136 -26.5h-28z" />
    <glyph glyph-name="AEacute" unicode="&#x1fc;" horiz-adv-x="973" 
d="M26 0q-9 0 -15.5 6.5t-6.5 14.5q0 5 3 10q11 33 23.5 68t28 75t36 88.5t47 108.5t62 134.5t79.5 166.5q4 11 13.5 19.5t24.5 8.5h575q11 0 18 -7t7 -18v-94q0 -11 -7 -18t-18 -7h-300v-135h278q11 0 18 -7.5t7 -18.5v-87q0 -10 -7 -17.5t-18 -7.5h-278v-139h308
q11 0 18 -7t7 -18v-94q0 -10 -7 -17.5t-18 -7.5h-456q-11 0 -18 7.5t-7 17.5v98h-192q-14 -28 -23 -45.5t-13.5 -28t-7.5 -17t-4 -11.5q-4 -7 -11 -14t-22 -7h-124zM276 267h147v286h-21zM425 750q-16 0 -16 16q0 8 5 13l88 107q10 12 17 15.5t20 3.5h140q19 0 19 -20
q0 -7 -5 -12l-133 -109q-8 -7 -16 -10.5t-22 -3.5h-97z" />
    <glyph glyph-name="aeacute" unicode="&#x1fd;" horiz-adv-x="915" 
d="M228 -10q-63 0 -108 20.5t-69 55.5t-24 79q0 71 57.5 113t153.5 57l125 19v14q0 36 -15 54.5t-54 18.5q-25 0 -40.5 -9t-26.5 -19.5t-24 -17.5q-2 -4 -4.5 -6t-6.5 -2h-109q-10 0 -16 6.5t-6 15.5q0 18 13 41.5t41 46.5t72.5 38t107.5 15t102.5 -15.5t62.5 -40.5
q30 25 70 40.5t91 15.5q72 0 121.5 -23t79.5 -61.5t43.5 -86t13.5 -96.5v-24q0 -11 -7 -18t-18 -7h-316v-7q1 -37 12 -60t29.5 -34t40.5 -11q20 0 38 9t32 27q9 10 14.5 13t17.5 3h122q22 0 22 -22q0 -16 -15 -40t-45.5 -47t-76.5 -39t-108 -16q-66 0 -114 21.5t-79 57.5
q-40 -45 -92.5 -62t-107.5 -17zM262 104q30 0 53 12.5t36.5 39t13.5 66.5v14l-85 -15q-47 -8 -68.5 -24.5t-21.5 -38.5q0 -17 10 -29t26.5 -18.5t35.5 -6.5zM538 313h165v4q0 48 -20.5 76t-61.5 28q-23 0 -41.5 -11.5t-29.5 -34t-12 -58.5v-4zM401 595q-16 0 -16 16
q0 8 5 13l88 107q10 12 17 15.5t20 3.5h132q19 0 19 -20q0 -7 -5 -12l-133 -109q-8 -7 -16 -10.5t-22 -3.5h-89z" />
    <glyph glyph-name="Oslashacute" unicode="&#x1fe;" horiz-adv-x="712" 
d="M356 -10q-92 0 -160 30t-106 90.5t-42 151.5q-1 43 -1 86.5t1 86.5q4 90 42.5 151.5t107 92.5t158.5 31q91 0 159 -31t107 -92.5t42 -151.5q2 -43 2 -86.5t-2 -86.5q-3 -91 -41.5 -151.5t-106.5 -90.5t-160 -30zM356 134q53 0 86.5 32t35.5 102q2 44 2 83t-2 81
q-2 47 -17.5 76.5t-42.5 43.5t-62 14q-34 0 -61 -14t-43 -43.5t-18 -76.5q-1 -42 -1 -81t1 -83q3 -70 36.5 -102t85.5 -32zM87 -65q-13 0 -18 11.5t3 24.5l496 780q2 3 7.5 8.5t15.5 5.5h35q13 0 17.5 -11t-3.5 -24l-497 -780q-2 -3 -7 -9t-17 -6h-32zM294 750q-16 0 -16 16
q0 8 5 13l88 107q10 12 17 15.5t20 3.5h140q19 0 19 -20q0 -7 -5 -12l-133 -109q-8 -7 -16 -10.5t-22 -3.5h-97z" />
    <glyph glyph-name="oslashacute" unicode="&#x1ff;" horiz-adv-x="611" 
d="M305 -10q-84 0 -141.5 27t-88 77.5t-34.5 120.5q-1 20 -1 45.5t1 44.5q4 71 36 121t89.5 77t138.5 27q82 0 139.5 -27t89.5 -77t36 -121q1 -19 1 -44.5t-1 -45.5q-4 -70 -34.5 -120.5t-88 -77.5t-142.5 -27zM305 112q45 0 65.5 27t23.5 81q1 15 1 40t-1 40
q-3 53 -23.5 80.5t-65.5 27.5q-43 0 -64.5 -27.5t-23.5 -80.5q-1 -15 -1 -40t1 -40q2 -54 23.5 -81t64.5 -27zM65 -28q-8 0 -14 6t-6 14q0 3 1 6.5t5 7.5l439 526q3 4 9 9.5t16 5.5h30q8 0 14 -6t6 -14q0 -1 -0.5 -5.5t-4.5 -9.5l-439 -525q-3 -4 -8.5 -9.5t-15.5 -5.5h-32z
M247 595q-16 0 -16 16q0 8 5 13l88 107q10 12 17 15.5t20 3.5h132q19 0 19 -20q0 -7 -5 -12l-133 -109q-8 -7 -16 -10.5t-22 -3.5h-89z" />
    <glyph glyph-name="uni0218" unicode="&#x218;" horiz-adv-x="663" 
d="M331 -10q-100 0 -166 28.5t-100 74.5t-36 98q0 8 6.5 14.5t15.5 6.5h126q14 0 21.5 -5t13.5 -13q8 -15 22.5 -29t38.5 -22.5t58 -8.5q58 0 87.5 18t29.5 49q0 23 -16 37t-51.5 25.5t-94.5 23.5q-76 16 -129.5 41.5t-81.5 67t-28 103.5q0 61 34.5 109t96.5 75t147 27
q69 0 121.5 -18t88.5 -48t54.5 -63.5t19.5 -65.5q0 -8 -5.5 -14.5t-15.5 -6.5h-132q-11 0 -19 4t-14 13q-6 22 -31.5 38.5t-66.5 16.5q-44 0 -68.5 -15.5t-24.5 -47.5q0 -20 13.5 -35t45 -26t86.5 -23q91 -17 147 -42.5t82.5 -66t26.5 -101.5q0 -68 -39 -117t-106.5 -75.5
t-156.5 -26.5zM244 -235q-9 0 -14 6.5t-5 15.5l19 129q2 13 11 23.5t26 10.5h111q8 0 13.5 -6t5.5 -14q0 -6 -2 -11l-49 -126q-4 -10 -12 -19t-25 -9h-79z" />
    <glyph glyph-name="uni0219" unicode="&#x219;" horiz-adv-x="553" 
d="M273 -10q-65 0 -110.5 14.5t-74 35.5t-42.5 43.5t-15 39.5q-1 11 7 18t17 7h114q3 0 5.5 -1t5.5 -4q13 -7 26 -17.5t30 -18.5t41 -8q28 0 47 11.5t19 32.5q0 16 -9 26.5t-36.5 20.5t-82.5 20q-52 12 -91 31.5t-60 51t-21 76.5q0 40 26 77t76 60.5t124 23.5
q57 0 100 -13.5t72 -34.5t44 -43t16 -40q1 -10 -6 -17.5t-16 -7.5h-104q-4 0 -8 1.5t-7 3.5q-12 6 -24 16t-28 18t-40 8q-27 0 -42 -12t-15 -31q0 -13 8.5 -24t35 -20t82.5 -20q69 -11 110 -35.5t58.5 -57t17.5 -68.5q0 -48 -29 -85t-84.5 -57.5t-136.5 -20.5zM192 -235
q-9 0 -14 6.5t-5 15.5l20 129q2 13 10.5 23.5t25.5 10.5h104q8 0 14 -6t6 -14q0 -6 -3 -11l-49 -126q-4 -10 -12 -19t-25 -9h-72z" />
    <glyph glyph-name="uni021A" unicode="&#x21a;" horiz-adv-x="630" 
d="M249 0q-11 0 -18 7.5t-7 17.5v518h-178q-11 0 -18 7.5t-7 17.5v107q0 11 7 18t18 7h538q11 0 18 -7t7 -18v-107q0 -10 -7 -17.5t-18 -7.5h-178v-518q0 -10 -7 -17.5t-18 -7.5h-132zM227 -235q-9 0 -14 6.5t-5 15.5l19 129q2 13 11 23.5t26 10.5h111q8 0 13.5 -6t5.5 -14
q0 -6 -2 -11l-49 -126q-4 -10 -12 -19t-25 -9h-79z" />
    <glyph glyph-name="uni021B" unicode="&#x21b;" horiz-adv-x="467" 
d="M325 0q-64 0 -110.5 20.5t-71.5 64t-25 112.5v192h-78q-11 0 -18.5 7t-7.5 18v81q0 11 7.5 18t18.5 7h78v165q0 11 7.5 18t17.5 7h116q11 0 18 -7t7 -18v-165h125q11 0 18.5 -7t7.5 -18v-81q0 -11 -7.5 -18t-18.5 -7h-125v-178q0 -34 13 -54t44 -20h77q11 0 18 -7t7 -18
v-87q0 -10 -7 -17.5t-18 -7.5h-93zM196 -235q-9 0 -14 6.5t-5 15.5l20 129q2 13 10.5 23.5t25.5 10.5h104q8 0 14 -6t6 -14q0 -6 -3 -11l-49 -126q-4 -10 -12 -19t-25 -9h-72z" />
    <glyph glyph-name="uni0237" unicode="&#x237;" horiz-adv-x="402" 
d="M43 -190q-11 0 -18 7.5t-7 17.5v103q0 11 7 18t18 7h64q25 0 38 9.5t18 26t5 37.5v348h-120q-10 0 -17.5 7t-7.5 18v86q0 11 7.5 18t17.5 7h270q11 0 18 -7t7 -18v-459q0 -69 -25.5 -119.5t-73.5 -78.5t-117 -28h-84z" />
    <glyph glyph-name="uni02BC" unicode="&#x2bc;" horiz-adv-x="180" 
d="M19 610q-9 0 -14 6.5t-5 15.5l20 129q2 13 10.5 23.5t25.5 10.5h104q8 0 14 -6t6 -14q0 -6 -3 -11l-49 -126q-4 -10 -12 -19t-25 -9h-72z" />
    <glyph glyph-name="circumflex" unicode="&#x2c6;" horiz-adv-x="485" 
d="M73 595q-15 0 -15 14q0 8 7 16l103 108q10 11 17.5 14t17.5 3h79q10 0 17.5 -3t17.5 -14l102 -108q8 -8 8 -16q0 -14 -15 -14h-48q-8 0 -17 1.5t-17 5.5l-88 49l-87 -49q-8 -4 -17 -5.5t-18 -1.5h-47z" />
    <glyph glyph-name="caron" unicode="&#x2c7;" horiz-adv-x="485" 
d="M203 595q-10 0 -17.5 3.5t-17.5 13.5l-103 108q-7 8 -7 16q0 14 15 14h47q9 0 18 -1.5t17 -5.5l87 -49l88 49q8 4 17 5.5t17 1.5h48q15 0 15 -14q0 -8 -8 -16l-102 -108q-10 -10 -17.5 -13.5t-17.5 -3.5h-79z" />
    <glyph glyph-name="breve" unicode="&#x2d8;" horiz-adv-x="417" 
d="M208 590q-51 0 -84 19t-49 51t-16 71q0 8 5 13.5t14 5.5h65q9 0 14 -5.5t5 -13.5q0 -23 10 -41t36 -18q28 0 37.5 18t9.5 41q0 8 5 13.5t14 5.5h64q9 0 14 -5.5t5 -13.5q0 -39 -16 -71t-49 -51t-84 -19z" />
    <glyph glyph-name="dotaccent" unicode="&#x2d9;" horiz-adv-x="261" 
d="M80 603q-10 0 -16 6.5t-6 16.5v100q0 10 6 16.5t16 6.5h100q10 0 16.5 -6.5t6.5 -16.5v-100q0 -10 -6.5 -16.5t-16.5 -6.5h-100z" />
    <glyph glyph-name="ring" unicode="&#x2da;" horiz-adv-x="300" 
d="M150 590q-38 0 -65 25t-27 63t27 62.5t65 24.5t65.5 -24.5t27.5 -62.5t-27.5 -63t-65.5 -25zM150 648q13 0 21.5 8.5t8.5 21.5t-8.5 21.5t-21.5 8.5t-21.5 -8.5t-8.5 -21.5t8.5 -21.5t21.5 -8.5z" />
    <glyph glyph-name="ogonek" unicode="&#x2db;" horiz-adv-x="307" 
d="M208 -220q-52 0 -87 21t-52.5 57t-17.5 81q0 46 17.5 81.5t52.5 56.5t87 21h16q11 0 18 -7.5t7 -17.5v-48q0 -10 -7 -17.5t-18 -7.5h-12q-30 0 -44.5 -18.5t-14.5 -42.5q0 -25 14.5 -43t44.5 -18h12q11 0 18 -7.5t7 -17.5v-48q0 -10 -7 -17.5t-18 -7.5h-16z" />
    <glyph glyph-name="tilde" unicode="&#x2dc;" horiz-adv-x="459" 
d="M290 590q-28 0 -45 9t-31 17.5t-32 8.5q-13 0 -19.5 -7t-11.5 -15t-16 -8h-60q-7 0 -12 5.5t-5 11.5q0 16 5.5 37.5t18.5 41.5t34.5 33.5t52.5 13.5q28 0 45.5 -9t31.5 -17.5t31 -8.5q14 0 19.5 7.5l11 15t16.5 7.5h60q8 0 13 -5t5 -13q0 -16 -6 -37t-19 -41.5
t-34.5 -33.5t-52.5 -13z" />
    <glyph glyph-name="hungarumlaut" unicode="&#x2dd;" horiz-adv-x="545" 
d="M288 595q-16 0 -16 16q0 4 2 8t3 7l48 105q9 19 37 19h105q20 0 20 -19q0 -7 -6 -13l-98 -109q-12 -14 -33 -14h-62zM75 595q-16 0 -16 16q0 4 2 8t3 7l47 105q9 19 37 19h105q20 0 20 -19q0 -7 -6 -13l-98 -109q-12 -14 -32 -14h-62z" />
    <glyph glyph-name="gravecomb" unicode="&#x300;" 
d="M233 595q-14 0 -22 3.5t-16 10.5l-133 109q-5 5 -5 13q0 19 19 19h132q13 0 20 -3.5t17 -15.5l88 -107q5 -5 5 -13q0 -16 -16 -16h-89z" />
    <glyph glyph-name="acutecomb" unicode="&#x301;" 
d="M74 595q-16 0 -16 16q0 8 5 13l88 107q10 12 17 15.5t20 3.5h132q19 0 19 -20q0 -7 -5 -12l-133 -109q-8 -7 -16 -10.5t-22 -3.5h-89z" />
    <glyph glyph-name="uni0302" unicode="&#x302;" 
d="M73 595q-15 0 -15 14q0 8 7 16l103 108q10 11 17.5 14t17.5 3h79q10 0 17.5 -3t17.5 -14l102 -108q8 -8 8 -16q0 -14 -15 -14h-48q-8 0 -17 1.5t-17 5.5l-88 49l-87 -49q-8 -4 -17 -5.5t-18 -1.5h-47z" />
    <glyph glyph-name="tildecomb" unicode="&#x303;" 
d="M290 590q-28 0 -45 9t-31 17.5t-32 8.5q-13 0 -19.5 -7t-11.5 -15t-16 -8h-60q-7 0 -12 5.5t-5 11.5q0 16 5.5 37.5t18.5 41.5t34.5 33.5t52.5 13.5q28 0 45.5 -9t31.5 -17.5t31 -8.5q14 0 19.5 7.5l11 15t16.5 7.5h60q8 0 13 -5t5 -13q0 -16 -6 -37t-19 -41.5
t-34.5 -33.5t-52.5 -13z" />
    <glyph glyph-name="uni0304" unicode="&#x304;" 
d="M80 605q-10 0 -16 6t-6 17v70q0 10 6 16.5t16 6.5h279q10 0 16.5 -6.5t6.5 -16.5v-70q0 -11 -6.5 -17t-16.5 -6h-279z" />
    <glyph glyph-name="uni0306" unicode="&#x306;" 
d="M208 590q-51 0 -84 19t-49 51t-16 71q0 8 5 13.5t14 5.5h65q9 0 14 -5.5t5 -13.5q0 -23 10 -41t36 -18q28 0 37.5 18t9.5 41q0 8 5 13.5t14 5.5h64q9 0 14 -5.5t5 -13.5q0 -39 -16 -71t-49 -51t-84 -19z" />
    <glyph glyph-name="uni0307" unicode="&#x307;" 
d="M80 603q-10 0 -16 6.5t-6 16.5v100q0 10 6 16.5t16 6.5h100q10 0 16.5 -6.5t6.5 -16.5v-100q0 -10 -6.5 -16.5t-16.5 -6.5h-100z" />
    <glyph glyph-name="uni0308" unicode="&#x308;" 
d="M287 607q-10 0 -16.5 6t-6.5 17v91q0 10 6.5 16.5t16.5 6.5h92q10 0 16.5 -6.5t6.5 -16.5v-91q0 -11 -6.5 -17t-16.5 -6h-92zM80 607q-10 0 -16 6t-6 17v91q0 10 6 16.5t16 6.5h92q10 0 16.5 -6.5t6.5 -16.5v-91q0 -11 -6.5 -17t-16.5 -6h-92z" />
    <glyph glyph-name="uni030A" unicode="&#x30a;" 
d="M150 590q-38 0 -65 25t-27 63t27 62.5t65 24.5t65.5 -24.5t27.5 -62.5t-27.5 -63t-65.5 -25zM150 648q13 0 21.5 8.5t8.5 21.5t-8.5 21.5t-21.5 8.5t-21.5 -8.5t-8.5 -21.5t8.5 -21.5t21.5 -8.5z" />
    <glyph glyph-name="uni030B" unicode="&#x30b;" 
d="M288 595q-16 0 -16 16q0 4 2 8t3 7l48 105q9 19 37 19h105q20 0 20 -19q0 -7 -6 -13l-98 -109q-12 -14 -33 -14h-62zM75 595q-16 0 -16 16q0 4 2 8t3 7l47 105q9 19 37 19h105q20 0 20 -19q0 -7 -6 -13l-98 -109q-12 -14 -32 -14h-62z" />
    <glyph glyph-name="uni030C" unicode="&#x30c;" 
d="M203 595q-10 0 -17.5 3.5t-17.5 13.5l-103 108q-7 8 -7 16q0 14 15 14h47q9 0 18 -1.5t17 -5.5l87 -49l88 49q8 4 17 5.5t17 1.5h48q15 0 15 -14q0 -8 -8 -16l-102 -108q-10 -10 -17.5 -13.5t-17.5 -3.5h-79z" />
    <glyph glyph-name="uni0312" unicode="&#x312;" 
d="M261 595q-8 0 -13.5 6t-5.5 14q0 6 2 11l50 126q4 10 12 19t24 9h73q8 0 13.5 -6.5t5.5 -15.5l-20 -128q-2 -13 -10.5 -24t-25.5 -11h-105z" />
    <glyph glyph-name="uni0326" unicode="&#x326;" 
d="M78 -235q-9 0 -14 6.5t-5 15.5l20 129q2 13 10.5 23.5t25.5 10.5h104q8 0 14 -6t6 -14q0 -6 -3 -11l-49 -126q-4 -10 -12 -19t-25 -9h-72z" />
    <glyph glyph-name="uni0327" unicode="&#x327;" 
d="M142 -220q-27 0 -49 9t-31 21t1 21l18 16q9 8 15.5 5.5t16.5 -8t29 -5.5q15 0 24 8.5t9 21.5q0 12 -9 20.5t-24 8.5q-12 0 -22 -3.5t-18.5 -4t-16.5 5.5l-19 20q-6 6 -5.5 13t6.5 19l35 79h64l-39 -77q6 3 16.5 4.5t16.5 1.5q36 0 57.5 -24t21.5 -63q0 -38 -26 -63.5
t-71 -25.5z" />
    <glyph glyph-name="uni0328" unicode="&#x328;" 
d="M208 -220q-52 0 -87 21t-52.5 57t-17.5 81q0 46 17.5 81.5t52.5 56.5t87 21h16q11 0 18 -7.5t7 -17.5v-48q0 -10 -7 -17.5t-18 -7.5h-12q-30 0 -44.5 -18.5t-14.5 -42.5q0 -25 14.5 -43t44.5 -18h12q11 0 18 -7.5t7 -17.5v-48q0 -10 -7 -17.5t-18 -7.5h-16z" />
    <glyph glyph-name="uni0335" unicode="&#x335;" 
d="M75 246q-10 0 -17.5 7.5t-7.5 17.5v48q0 11 7.5 18t17.5 7h301q11 0 18.5 -7t7.5 -18v-48q0 -10 -7.5 -17.5t-18.5 -7.5h-301z" />
    <glyph glyph-name="uni0337" unicode="&#x337;" 
d="M46 -34q-8 0 -14 6t-6 14q0 3 1 6.5t5 7.5l439 526q3 4 9 9.5t16 5.5h30q8 0 14 -6t6 -14q0 -1 -0.5 -5.5t-4.5 -9.5l-439 -525q-3 -4 -8.5 -9.5t-15.5 -5.5h-32z" />
    <glyph glyph-name="uni0338" unicode="&#x338;" 
d="M-4 -64q-13 0 -18 11.5t3 24.5l496 780q2 3 7.5 8.5t15.5 5.5h35q13 0 17.5 -11t-3.5 -24l-497 -780q-2 -3 -7 -9t-17 -6h-32z" />
    <glyph glyph-name="uni0400" unicode="&#x400;" horiz-adv-x="639" 
d="M95 0q-11 0 -18 7.5t-7 17.5v650q0 11 7 18t18 7h467q11 0 18 -7t7 -18v-94q0 -11 -7 -18t-18 -7h-319v-135h297q11 0 18 -7.5t7 -18.5v-87q0 -10 -7 -17.5t-18 -7.5h-297v-139h327q11 0 18 -7t7 -18v-94q0 -10 -7 -17.5t-18 -7.5h-475zM308 750q-14 0 -22 3.5t-16 10.5
l-133 109q-5 5 -5 12q0 20 19 20h140q12 0 19.5 -3.5t17.5 -15.5l88 -107q5 -5 5 -13q0 -16 -16 -16h-97z" />
    <glyph glyph-name="uni0401" unicode="&#x401;" horiz-adv-x="639" 
d="M95 0q-11 0 -18 7.5t-7 17.5v650q0 11 7 18t18 7h467q11 0 18 -7t7 -18v-94q0 -11 -7 -18t-18 -7h-319v-135h297q11 0 18 -7.5t7 -18.5v-87q0 -10 -7 -17.5t-18 -7.5h-297v-139h327q11 0 18 -7t7 -18v-94q0 -10 -7 -17.5t-18 -7.5h-475zM397 787q-10 0 -16.5 6t-6.5 17
v91q0 10 6.5 16.5t16.5 6.5h92q10 0 16.5 -6.5t6.5 -16.5v-91q0 -11 -6.5 -17t-16.5 -6h-92zM190 787q-10 0 -16 6t-6 17v91q0 10 6 16.5t16 6.5h92q10 0 16.5 -6.5t6.5 -16.5v-91q0 -11 -6.5 -17t-16.5 -6h-92z" />
    <glyph glyph-name="uni0402" unicode="&#x402;" horiz-adv-x="772" 
d="M194 0q-11 0 -18.5 7.5t-7.5 17.5v542h-125q-10 0 -16 6.5t-6 16.5v87q0 10 6 16.5t16 6.5h520q10 0 16.5 -6.5t6.5 -16.5v-87q0 -10 -6.5 -16.5t-16.5 -6.5h-215v-134q15 14 40 23.5t55.5 14.5t57.5 5q121 0 179 -57t58 -171v-30q0 -71 -32 -120t-94.5 -73.5
t-154.5 -24.5h-14q-11 0 -18.5 7.5t-7.5 17.5v85q0 11 7.5 18t18.5 7h14q40 0 61.5 11t30.5 30t9 43v14q0 41 -24 59.5t-76 18.5q-21 0 -41 -3t-35.5 -11t-24.5 -20t-9 -30v-222q0 -10 -7 -17.5t-18 -7.5h-129z" />
    <glyph glyph-name="uni0403" unicode="&#x403;" horiz-adv-x="564" 
d="M95 0q-11 0 -18 7.5t-7 17.5v650q0 11 7 18t18 7h431q11 0 18 -7t7 -18v-100q0 -11 -7 -18.5t-18 -7.5h-276v-524q0 -10 -7.5 -17.5t-18.5 -7.5h-129zM274 750q-16 0 -16 16q0 8 5 13l88 107q10 12 17 15.5t20 3.5h140q19 0 19 -20q0 -7 -5 -12l-133 -109
q-8 -7 -16 -10.5t-22 -3.5h-97z" />
    <glyph glyph-name="uni0404" unicode="&#x404;" horiz-adv-x="688" 
d="M350 -10q-90 0 -157.5 29.5t-106.5 92.5t-42 162q0 10 -0.5 30.5t-0.5 45t0.5 45.5t0.5 31q3 98 42.5 160.5t107 93t156.5 30.5q80 0 143 -22.5t102 -65.5t46 -106q1 -9 -5.5 -15.5t-15.5 -6.5h-131q-12 0 -17.5 4t-11.5 14q-7 22 -33 38t-74 16q-59 0 -91 -32t-32 -102
v-15h195q10 0 17.5 -8t7.5 -19v-80q0 -11 -7.5 -19t-17.5 -8h-195v-16q0 -64 32.5 -99t90.5 -35q48 0 74 15t36 39q7 10 13 13.5t17 3.5h130q9 0 16 -6t6 -15q-8 -64 -48.5 -107t-105 -64.5t-141.5 -21.5z" />
    <glyph glyph-name="uni0405" unicode="&#x405;" horiz-adv-x="663" 
d="M331 -10q-100 0 -166 28.5t-100 74.5t-36 98q0 8 6.5 14.5t15.5 6.5h126q14 0 21.5 -5t13.5 -13q8 -15 22.5 -29t38.5 -22.5t58 -8.5q58 0 87.5 18t29.5 49q0 23 -16 37t-51.5 25.5t-94.5 23.5q-76 16 -129.5 41.5t-81.5 67t-28 103.5q0 61 34.5 109t96.5 75t147 27
q69 0 121.5 -18t88.5 -48t54.5 -63.5t19.5 -65.5q0 -8 -5.5 -14.5t-15.5 -6.5h-132q-11 0 -19 4t-14 13q-6 22 -31.5 38.5t-66.5 16.5q-44 0 -68.5 -15.5t-24.5 -47.5q0 -20 13.5 -35t45 -26t86.5 -23q91 -17 147 -42.5t82.5 -66t26.5 -101.5q0 -68 -39 -117t-106.5 -75.5
t-156.5 -26.5z" />
    <glyph glyph-name="uni0406" unicode="&#x406;" horiz-adv-x="324" 
d="M95 0q-11 0 -18 7.5t-7 17.5v650q0 11 7 18t18 7h134q11 0 18.5 -7t7.5 -18v-650q0 -10 -7.5 -17.5t-18.5 -7.5h-134z" />
    <glyph glyph-name="uni0407" unicode="&#x407;" horiz-adv-x="324" 
d="M95 0q-11 0 -18 7.5t-7 17.5v650q0 11 7 18t18 7h134q11 0 18.5 -7t7.5 -18v-650q0 -10 -7.5 -17.5t-18.5 -7.5h-134zM219 787q-10 0 -16.5 6t-6.5 17v91q0 10 6.5 16.5t16.5 6.5h92q10 0 16.5 -6.5t6.5 -16.5v-91q0 -11 -6.5 -17t-16.5 -6h-92zM12 787q-10 0 -16 6
t-6 17v91q0 10 6 16.5t16 6.5h92q10 0 16.5 -6.5t6.5 -16.5v-91q0 -11 -6.5 -17t-16.5 -6h-92z" />
    <glyph glyph-name="uni0408" unicode="&#x408;" horiz-adv-x="671" 
d="M312 -10q-57 0 -108.5 14.5t-91.5 43.5t-63.5 72t-25.5 100q0 9 6 15.5t16 6.5h135q14 0 21.5 -7t12.5 -21q6 -28 19.5 -45.5t35 -26t48.5 -8.5q50 0 77 32.5t27 95.5v289h-324q-10 0 -17.5 7t-7.5 18v99q0 11 7.5 18t17.5 7h484q11 0 18.5 -7t7.5 -18v-418
q0 -87 -37.5 -146.5t-104 -90t-153.5 -30.5z" />
    <glyph glyph-name="uni0409" unicode="&#x409;" horiz-adv-x="1080" 
d="M56 0q-11 0 -19 7.5t-8 18.5v105q0 22 25 26q28 5 47 28.5t31 64t17 97t5 125.5v203q0 11 7.5 18t18.5 7h477q11 0 18 -7t7 -18v-215h95q128 0 199 -56.5t71 -170.5q0 -69 -31.5 -122t-91.5 -82t-147 -29h-249q-11 0 -18.5 7.5t-7.5 17.5v515h-174v-91
q0 -121 -11.5 -205.5t-41 -138t-83 -78.5t-136.5 -27zM682 139h91q43 0 65 26.5t22 67.5q0 45 -23 67t-64 22h-91v-183z" />
    <glyph glyph-name="uni040A" unicode="&#x40a;" horiz-adv-x="1065" 
d="M95 0q-11 0 -18 7t-7 18v650q0 11 7 18t18 7h129q11 0 18.5 -7t7.5 -18v-241h238v241q0 11 7.5 18t17.5 7h130q10 0 17.5 -7t7.5 -18v-215h94q129 0 199.5 -56.5t70.5 -170.5q0 -69 -31 -122t-91 -82t-148 -29h-249q-10 0 -17.5 7.5t-7.5 17.5v249h-238v-249
q0 -10 -7.5 -17.5t-18.5 -7.5h-129zM668 139h90q43 0 65.5 26.5t22.5 67.5q0 45 -23 67t-65 22h-90v-183z" />
    <glyph glyph-name="uni040B" unicode="&#x40b;" horiz-adv-x="784" 
d="M194 0q-11 0 -18.5 7.5t-7.5 17.5v542h-125q-10 0 -16 6.5t-6 16.5v87q0 10 6 16.5t16 6.5h520q10 0 16.5 -6.5t6.5 -16.5v-87q0 -10 -6.5 -16.5t-16.5 -6.5h-215v-146q16 14 41.5 23.5t55 14.5t56.5 5q120 0 178.5 -57t58.5 -172v-210q0 -10 -7 -17.5t-18 -7.5h-129
q-11 0 -18.5 7.5t-7.5 17.5v195q0 40 -24 59.5t-76 19.5q-17 0 -36 -2.5t-36 -9.5t-27.5 -19.5t-10.5 -33.5v-209q0 -10 -7 -17.5t-18 -7.5h-129z" />
    <glyph glyph-name="uni040C" unicode="&#x40c;" horiz-adv-x="701" 
d="M95 0q-11 0 -18 7t-7 18v650q0 11 7 18t18 7h129q11 0 18.5 -7t7.5 -18v-241h61l147 247q5 8 14 13.5t23 5.5h145q9 0 15 -6.5t6 -14.5q0 -6 -4 -12l-186 -304l204 -329q3 -4 3 -11q0 -10 -6.5 -16.5t-16.5 -6.5h-148q-16 0 -23.5 7.5l-11.5 11.5l-155 255h-67v-249
q0 -10 -7.5 -17.5t-18.5 -7.5h-129zM278 750q-16 0 -16 16q0 8 5 13l88 107q10 12 17 15.5t20 3.5h140q19 0 19 -20q0 -7 -5 -12l-133 -109q-8 -7 -16 -10.5t-22 -3.5h-97z" />
    <glyph glyph-name="uni040D" unicode="&#x40d;" horiz-adv-x="779" 
d="M95 0q-11 0 -18 7.5t-7 18.5v649q0 11 7.5 18t17.5 7h129q11 0 18.5 -7t7.5 -18v-402l284 408q5 8 13 13.5t21 5.5h116q10 0 17.5 -7t7.5 -18v-650q0 -10 -7.5 -17.5t-17.5 -7.5h-129q-11 0 -18.5 7.5t-7.5 17.5v388l-284 -394q-4 -6 -11.5 -12.5t-22.5 -6.5h-116z
M362 750q-14 0 -22 3.5t-16 10.5l-133 109q-5 5 -5 12q0 20 19 20h140q12 0 19.5 -3.5t17.5 -15.5l88 -107q5 -5 5 -13q0 -16 -16 -16h-97z" />
    <glyph glyph-name="uni040E" unicode="&#x40e;" horiz-adv-x="649" 
d="M133 0q-11 0 -18 7.5t-7 17.5v106q0 11 7 18t18 7h38q27 0 46 10.5t34.5 32t30.5 55.5l186 425q4 11 12 16t18 5h131q9 0 15.5 -6.5t6.5 -14.5q0 -4 -1.5 -9t-3.5 -9l-199 -457q-25 -57 -48.5 -96t-51.5 -63t-66.5 -34.5t-94.5 -10.5h-53zM274 180l-263 489q-2 4 -2 9
q0 8 7 15t17 7h138q11 0 17.5 -5.5t11.5 -15.5l166 -323zM339 741q-64 0 -103 19.5t-56.5 52t-17.5 71.5q0 8 4.5 13.5t14.5 5.5h80q9 0 14 -5.5t5 -13.5q0 -13 5 -25.5t17.5 -20t36.5 -7.5t37 7.5t18 20t5 25.5q0 8 5 13.5t14 5.5h80q9 0 14 -5.5t5 -13.5q0 -39 -18 -71.5
t-57 -52t-103 -19.5z" />
    <glyph glyph-name="uni040F" unicode="&#x40f;" horiz-adv-x="745" 
d="M308 -140q-11 0 -18.5 7.5t-7.5 17.5v115h-187q-11 0 -18 7.5t-7 17.5v650q0 11 7 18t18 7h129q11 0 18.5 -7t7.5 -18v-515h246v515q0 11 7 18t18 7h129q11 0 18 -7t7 -18v-650q0 -10 -7 -17.5t-18 -7.5h-188v-115q0 -10 -7 -17.5t-18 -7.5h-129z" />
    <glyph glyph-name="uni0410" unicode="&#x410;" horiz-adv-x="716" 
d="M30 0q-8 0 -14.5 6.5t-6.5 14.5q0 5 1 9l235 642q3 11 12.5 19.5t26.5 8.5h148q17 0 26.5 -8.5t12.5 -19.5l234 -642q2 -4 2 -9q0 -8 -6.5 -14.5t-15.5 -6.5h-123q-15 0 -22.5 7.5t-9.5 13.5l-39 102h-267l-38 -102q-2 -6 -9 -13.5t-24 -7.5h-123zM265 267h186l-93 264z
" />
    <glyph glyph-name="uni0411" unicode="&#x411;" horiz-adv-x="657" 
d="M95 0q-11 0 -18 7.5t-7 17.5v650q0 11 7 18t18 7h480q11 0 18 -7t7 -18v-100q0 -11 -7 -18.5t-18 -7.5h-325v-118h139q120 0 189 -57t69 -156q0 -46 -17 -85.5t-49.5 -69t-80 -46.5t-111.5 -17h-294zM250 130h123q29 0 48.5 12.5t29.5 33t10 43.5q0 35 -22.5 60t-65.5 25
h-123v-174z" />
    <glyph glyph-name="uni0412" unicode="&#x412;" horiz-adv-x="704" 
d="M95 0q-11 0 -18 7.5t-7 17.5v650q0 11 7 18t18 7h305q86 0 141 -24t81.5 -68.5t26.5 -105.5q0 -36 -13.5 -63.5t-33 -45.5t-36.5 -26q38 -18 67.5 -59t29.5 -96q0 -66 -29.5 -113.5t-86 -73t-138.5 -25.5h-314zM250 130h139q43 0 65 25t22 57q0 35 -22.5 59t-64.5 24
h-139v-165zM250 422h130q41 0 61.5 21.5t20.5 53.5t-20.5 52.5t-61.5 20.5h-130v-148z" />
    <glyph glyph-name="uni0413" unicode="&#x413;" horiz-adv-x="564" 
d="M95 0q-11 0 -18 7.5t-7 17.5v650q0 11 7 18t18 7h431q11 0 18 -7t7 -18v-100q0 -11 -7 -18.5t-18 -7.5h-276v-524q0 -10 -7.5 -17.5t-18.5 -7.5h-129z" />
    <glyph glyph-name="uni0414" unicode="&#x414;" horiz-adv-x="782" 
d="M55 -140q-11 0 -18.5 7t-7.5 19v249q0 11 7.5 18t18.5 7h18q24 0 40 23t26 65t14 99t4 125v203q0 11 7.5 18t17.5 7h470q11 0 18 -7t7 -18v-515h47q11 0 18.5 -7t7.5 -18v-249q0 -11 -7.5 -18.5t-18.5 -7.5h-129q-11 0 -18 7.5t-7 18.5v114h-361v-114q0 -11 -7 -18.5
t-18 -7.5h-129zM285 160h213v380h-167v-91q0 -105 -12 -176t-34 -113z" />
    <glyph glyph-name="uni0415" unicode="&#x415;" horiz-adv-x="639" 
d="M95 0q-11 0 -18 7.5t-7 17.5v650q0 11 7 18t18 7h467q11 0 18 -7t7 -18v-94q0 -11 -7 -18t-18 -7h-319v-135h297q11 0 18 -7.5t7 -18.5v-87q0 -10 -7 -17.5t-18 -7.5h-297v-139h327q11 0 18 -7t7 -18v-94q0 -10 -7 -17.5t-18 -7.5h-475z" />
    <glyph glyph-name="uni0416" unicode="&#x416;" horiz-adv-x="1069" 
d="M46 0q-10 0 -16.5 6.5t-6.5 16.5q0 7 3 11l204 329l-186 304q-4 6 -4 12q0 8 6 14.5t15 6.5h144q15 0 24 -5.5t13 -13.5l148 -248h58v242q0 11 7 18t18 7h123q11 0 18 -7t7 -18v-242h57l148 248q5 8 14 13.5t23 5.5h145q9 0 15 -6.5t6 -14.5q0 -6 -4 -12l-186 -304
l204 -329q3 -4 3 -11q0 -10 -6.5 -16.5t-16.5 -6.5h-148q-16 0 -23.5 7.5l-11.5 11.5l-155 255h-64v-249q0 -11 -7 -18t-18 -7h-123q-11 0 -18 7t-7 18v249h-64l-155 -255l-11.5 -11.5t-23.5 -7.5h-148z" />
    <glyph glyph-name="uni0417" unicode="&#x417;" horiz-adv-x="672" 
d="M332 -10q-77 0 -131.5 17t-89.5 45t-52.5 62.5t-21.5 69.5q-1 9 6 14.5t16 5.5h128q12 0 19 -4t12 -14q11 -24 37.5 -38.5t72.5 -14.5q36 0 62 9.5t40.5 26.5t14.5 42q0 38 -29 58t-81 20h-74q-11 0 -18 7.5t-7 18.5v81q0 11 7 18.5t18 7.5h72q42 0 67.5 17.5t25.5 54.5
q0 21 -11.5 37.5t-33 25.5t-52.5 9q-44 0 -70.5 -14t-33.5 -40q-5 -9 -11 -13.5t-17 -4.5h-132q-9 0 -15.5 6.5t-5.5 15.5q3 35 20.5 70t51 62.5t87.5 44.5t130 17q86 0 148 -27.5t95.5 -72.5t33.5 -99q0 -25 -7 -51.5t-23.5 -50t-48.5 -41.5q38 -18 59.5 -45t31 -58
t9.5 -62q0 -64 -36 -111.5t-103.5 -74.5t-159.5 -27z" />
    <glyph glyph-name="uni0418" unicode="&#x418;" horiz-adv-x="779" 
d="M95 0q-11 0 -18 7.5t-7 18.5v649q0 11 7.5 18t17.5 7h129q11 0 18.5 -7t7.5 -18v-402l284 408q5 8 13 13.5t21 5.5h116q10 0 17.5 -7t7.5 -18v-650q0 -10 -7.5 -17.5t-17.5 -7.5h-129q-11 0 -18.5 7.5t-7.5 17.5v388l-284 -394q-4 -6 -11.5 -12.5t-22.5 -6.5h-116z" />
    <glyph glyph-name="uni0419" unicode="&#x419;" horiz-adv-x="779" 
d="M95 0q-11 0 -18 7.5t-7 18.5v649q0 11 7.5 18t17.5 7h129q11 0 18.5 -7t7.5 -18v-402l284 408q5 8 13 13.5t21 5.5h116q10 0 17.5 -7t7.5 -18v-650q0 -10 -7.5 -17.5t-17.5 -7.5h-129q-11 0 -18.5 7.5t-7.5 17.5v388l-284 -394q-4 -6 -11.5 -12.5t-22.5 -6.5h-116z
M393 741q-64 0 -103 19.5t-56.5 52t-17.5 71.5q0 8 4.5 13.5t14.5 5.5h80q9 0 14 -5.5t5 -13.5q0 -13 5 -25.5t17.5 -20t36.5 -7.5t37 7.5t18 20t5 25.5q0 8 5 13.5t14 5.5h80q9 0 14 -5.5t5 -13.5q0 -39 -18 -71.5t-57 -52t-103 -19.5z" />
    <glyph glyph-name="uni041A" unicode="&#x41a;" horiz-adv-x="701" 
d="M95 0q-11 0 -18 7t-7 18v650q0 11 7 18t18 7h129q11 0 18.5 -7t7.5 -18v-241h61l147 247q5 8 14 13.5t23 5.5h145q9 0 15 -6.5t6 -14.5q0 -6 -4 -12l-186 -304l204 -329q3 -4 3 -11q0 -10 -6.5 -16.5t-16.5 -6.5h-148q-16 0 -23.5 7.5l-11.5 11.5l-155 255h-67v-249
q0 -10 -7.5 -17.5t-18.5 -7.5h-129z" />
    <glyph glyph-name="uni041B" unicode="&#x41b;" horiz-adv-x="763" 
d="M539 0q-11 0 -18 7.5t-7 17.5v515h-186v-91q0 -121 -11.5 -205.5t-41 -138t-83 -78.5t-136.5 -27q-11 0 -19 7.5t-8 18.5v105q0 22 25 26q28 5 47 28.5t31 64t17 97t5 125.5v203q0 11 7.5 18t18.5 7h488q11 0 18.5 -7t7.5 -18v-650q0 -10 -7.5 -17.5t-18.5 -7.5h-129z
" />
    <glyph glyph-name="uni041C" unicode="&#x41c;" horiz-adv-x="828" 
d="M95 0q-10 0 -17.5 7.5t-7.5 17.5v650q0 11 7.5 18t17.5 7h108q17 0 25 -8.5t10 -13.5l176 -315l176 315q3 5 10.5 13.5t24.5 8.5h107q11 0 18.5 -7t7.5 -18v-650q0 -10 -7.5 -17.5t-18.5 -7.5h-119q-11 0 -18.5 7.5t-7.5 17.5v375l-112 -209q-5 -9 -13 -16t-22 -7h-52
q-14 0 -22 7t-13 16l-113 209v-375q0 -10 -7 -17.5t-18 -7.5h-120z" />
    <glyph glyph-name="uni041D" unicode="&#x41d;" horiz-adv-x="745" 
d="M95 0q-11 0 -18 7t-7 18v650q0 11 7 18t18 7h129q11 0 18.5 -7t7.5 -18v-241h246v241q0 11 7 18t18 7h129q11 0 18 -7t7 -18v-650q0 -10 -7 -17.5t-18 -7.5h-129q-11 0 -18 7.5t-7 17.5v249h-246v-249q0 -10 -7.5 -17.5t-18.5 -7.5h-129z" />
    <glyph glyph-name="uni041E" unicode="&#x41e;" horiz-adv-x="712" 
d="M356 -10q-92 0 -160 30t-106 90.5t-42 151.5q-1 43 -1 86.5t1 86.5q4 90 42.5 151.5t107 92.5t158.5 31q91 0 159 -31t107 -92.5t42 -151.5q2 -43 2 -86.5t-2 -86.5q-3 -91 -41.5 -151.5t-106.5 -90.5t-160 -30zM356 134q53 0 86.5 32t35.5 102q2 44 2 83t-2 81
q-2 47 -17.5 76.5t-42.5 43.5t-62 14q-34 0 -61 -14t-43 -43.5t-18 -76.5q-1 -42 -1 -81t1 -83q3 -70 36.5 -102t85.5 -32z" />
    <glyph glyph-name="uni041F" unicode="&#x41f;" horiz-adv-x="745" 
d="M95 0q-11 0 -18 7t-7 18v650q0 11 7 18t18 7h555q11 0 18 -7t7 -18v-650q0 -10 -7 -17.5t-18 -7.5h-129q-11 0 -18 7.5t-7 17.5v515h-246v-515q0 -10 -7.5 -17.5t-18.5 -7.5h-129z" />
    <glyph glyph-name="uni0420" unicode="&#x420;" horiz-adv-x="676" 
d="M95 0q-11 0 -18 7.5t-7 17.5v650q0 11 7 18t18 7h280q83 0 144.5 -25.5t96 -76.5t34.5 -129q0 -77 -34.5 -127t-96 -74t-144.5 -24h-119v-219q0 -10 -7.5 -17.5t-18.5 -7.5h-135zM253 382h117q43 0 68.5 22t25.5 67q0 38 -22 64t-72 26h-117v-179z" />
    <glyph glyph-name="uni0421" unicode="&#x421;" horiz-adv-x="702" 
d="M357 -10q-94 0 -162 31t-105.5 91t-41.5 149q-1 41 -1 88t1 90q4 87 42 148t106 92t161 31q66 0 122 -16.5t98 -48t65.5 -76t24.5 -100.5q1 -9 -5.5 -15t-15.5 -6h-135q-13 0 -20 5.5t-12 20.5q-14 53 -45.5 72.5t-77.5 19.5q-55 0 -87 -30.5t-35 -101.5q-3 -82 0 -168
q3 -71 35 -101.5t87 -30.5q46 0 78 20t45 72q4 15 11.5 20.5t20.5 5.5h135q9 0 15.5 -6t5.5 -15q-1 -56 -24.5 -100.5t-65.5 -76t-98 -48t-122 -16.5z" />
    <glyph glyph-name="uni0422" unicode="&#x422;" horiz-adv-x="630" 
d="M249 0q-11 0 -18 7.5t-7 17.5v518h-178q-11 0 -18 7.5t-7 17.5v107q0 11 7 18t18 7h538q11 0 18 -7t7 -18v-107q0 -10 -7 -17.5t-18 -7.5h-178v-518q0 -10 -7 -17.5t-18 -7.5h-132z" />
    <glyph glyph-name="uni0423" unicode="&#x423;" horiz-adv-x="649" 
d="M133 0q-11 0 -18 7.5t-7 17.5v106q0 11 7 18t18 7h38q27 0 46 10.5t34.5 32t30.5 55.5l186 425q4 11 12 16t18 5h131q9 0 15.5 -6.5t6.5 -14.5q0 -4 -1.5 -9t-3.5 -9l-199 -457q-25 -57 -48.5 -96t-51.5 -63t-66.5 -34.5t-94.5 -10.5h-53zM274 180l-263 489q-2 4 -2 9
q0 8 7 15t17 7h138q11 0 17.5 -5.5t11.5 -15.5l166 -323z" />
    <glyph glyph-name="uni0424" unicode="&#x424;" horiz-adv-x="928" 
d="M399 -32q-10 0 -17.5 7.5t-7.5 17.5v69q-149 0 -232 66.5t-94 198.5q0 8 -0.5 22.5t0 29.5t0.5 22q5 87 45.5 146.5t112.5 90t168 30.5v58q0 10 7.5 17.5t17.5 7.5h130q11 0 18 -7.5t7 -17.5v-58q97 0 168.5 -30.5t112.5 -90t45 -146.5q2 -22 2 -36.5t-2 -37.5
q-10 -132 -93 -198.5t-233 -66.5v-69q0 -10 -7 -17.5t-18 -7.5h-130zM375 207v317q-64 0 -100 -30t-41 -96q-1 -17 -1 -32.5t1 -32.5q3 -66 39.5 -96t101.5 -30zM553 207q66 0 102 30t39 96q1 7 1 19.5v25.5t-1 20q-5 66 -40.5 96t-100.5 30v-317z" />
    <glyph glyph-name="uni0425" unicode="&#x425;" horiz-adv-x="690" 
d="M33 0q-9 0 -15.5 6.5t-6.5 14.5q0 3 1 6t3 6l218 324l-202 310q-3 6 -3 12q0 8 6 14.5t15 6.5h145q15 0 23 -7.5t12 -13.5l119 -181l121 181q4 6 12 13.5t23 7.5h138q8 0 14.5 -6.5t6.5 -14.5q0 -7 -4 -12l-203 -309l220 -325q2 -3 2.5 -6t0.5 -6q0 -8 -6 -14.5t-15 -6.5
h-149q-15 0 -23.5 7.5t-11.5 12.5l-132 192l-131 -192q-3 -5 -11 -12.5t-23 -7.5h-144z" />
    <glyph glyph-name="uni0426" unicode="&#x426;" horiz-adv-x="780" 
d="M593 -140q-11 0 -18 7.5t-7 17.5v115h-473q-11 0 -18 7.5t-7 18.5v649q0 11 7 18t18 7h129q11 0 18.5 -7t7.5 -18v-515h246v515q0 11 7 18t18 7h129q11 0 18 -7t7 -18v-515h47q11 0 18.5 -7t7.5 -18v-250q0 -10 -7.5 -17.5t-18.5 -7.5h-129z" />
    <glyph glyph-name="uni0427" unicode="&#x427;" horiz-adv-x="699" 
d="M469 0q-11 0 -18 7.5t-7 17.5v215q-16 -13 -40 -22t-51.5 -13t-55.5 -4q-127 0 -189 62.5t-62 191.5v220q0 11 7.5 18t17.5 7h130q11 0 18 -7t7 -18v-212q0 -50 25 -73.5t83 -23.5q16 0 35 3t36 10t28 19t11 29v248q0 11 7 18t18 7h129q11 0 18.5 -7t7.5 -18v-650
q0 -10 -7.5 -17.5t-18.5 -7.5h-129z" />
    <glyph glyph-name="uni0428" unicode="&#x428;" horiz-adv-x="988" 
d="M95 0q-11 0 -18 7.5t-7 17.5v650q0 11 7 18t18 7h129q11 0 18.5 -7t7.5 -18v-515h154v515q0 11 7.5 18t17.5 7h130q11 0 18 -7t7 -18v-515h154v515q0 11 7.5 18t17.5 7h129q11 0 18.5 -7t7.5 -18v-650q0 -10 -7.5 -17.5t-18.5 -7.5h-797z" />
    <glyph glyph-name="uni0429" unicode="&#x429;" horiz-adv-x="1022" 
d="M836 -140q-11 0 -18.5 7.5t-7.5 17.5v115h-715q-11 0 -18 7.5t-7 17.5v650q0 11 7 18t18 7h129q11 0 18.5 -7t7.5 -18v-515h154v515q0 11 7.5 18t17.5 7h130q11 0 18 -7t7 -18v-515h154v515q0 11 7.5 18t17.5 7h129q11 0 18.5 -7t7.5 -18v-515h47q11 0 18 -7t7 -18v-250
q0 -10 -7 -17.5t-18 -7.5h-129z" />
    <glyph glyph-name="uni042A" unicode="&#x42a;" horiz-adv-x="764" 
d="M205 0q-11 0 -18 7.5t-7 17.5v531h-134q-11 0 -18 7t-7 18v94q0 11 7 18t18 7h288q11 0 18 -7t7 -18v-215h102q129 0 199.5 -56.5t70.5 -170.5q0 -69 -31 -122t-91 -82t-148 -29h-256zM359 139h98q43 0 65.5 26.5t22.5 67.5q0 45 -23 67t-65 22h-98v-183z" />
    <glyph glyph-name="uni042B" unicode="&#x42b;" horiz-adv-x="944" 
d="M95 0q-11 0 -18 7.5t-7 17.5v650q0 11 7 18t18 7h129q11 0 18.5 -7t7.5 -18v-215h94q128 0 199 -56.5t71 -170.5q0 -69 -31 -122t-91.5 -82t-147.5 -29h-249zM250 139h90q43 0 65.5 26.5t22.5 67.5q0 45 -23.5 67t-64.5 22h-90v-183zM715 0q-11 0 -18 7.5t-7 17.5v650
q0 11 7 18t18 7h134q11 0 18.5 -7t7.5 -18v-650q0 -10 -7.5 -17.5t-18.5 -7.5h-134z" />
    <glyph glyph-name="uni042C" unicode="&#x42c;" horiz-adv-x="658" 
d="M95 0q-11 0 -18 7.5t-7 17.5v650q0 11 7 18t18 7h129q11 0 18.5 -7t7.5 -18v-215h105q129 0 199.5 -56.5t70.5 -170.5q0 -69 -31 -122t-91.5 -82t-147.5 -29h-260zM250 139h101q43 0 65.5 26.5t22.5 67.5q0 45 -23 67t-65 22h-101v-183z" />
    <glyph glyph-name="uni042D" unicode="&#x42d;" horiz-adv-x="691" 
d="M337 -10q-79 0 -143 22.5t-104.5 65.5t-47.5 105q-1 9 5.5 15t15.5 6h130q12 0 18 -4t12 -13q10 -24 36.5 -39t73.5 -15q58 0 90.5 35t32.5 99v16h-194q-11 0 -18 8t-7 19v80q0 11 7 19t18 8h194v15q0 69 -32 101.5t-91 32.5q-47 0 -73.5 -16t-33.5 -38q-5 -10 -10.5 -14
t-17.5 -4h-131q-9 0 -16 6.5t-6 15.5q8 65 48 108t103 64.5t141 21.5q88 0 155.5 -30.5t107 -93t43.5 -160.5q1 -31 1 -53.5v-45t-1 -53.5q-4 -99 -42.5 -162t-106 -92.5t-157.5 -29.5z" />
    <glyph glyph-name="uni042E" unicode="&#x42e;" horiz-adv-x="1037" 
d="M681 -10q-72 0 -127 18t-93.5 51.5t-60 81.5t-26.5 108q-1 7 -1 13v12h-123v-249q0 -10 -7.5 -17.5t-18.5 -7.5h-129q-11 0 -18 7t-7 18v650q0 11 7 18t18 7h129q11 0 18.5 -7t7.5 -18v-241h123q0 5 0.5 11.5t1.5 11.5q5 56 27.5 102.5t60.5 80t92.5 52t125.5 18.5
q74 0 130 -19.5t95 -56t59.5 -87t22.5 -112.5q2 -43 2 -86.5t-2 -86.5q-2 -63 -23 -113t-59.5 -85.5t-94.5 -54.5t-130 -19zM681 134q35 0 62 13.5t42.5 42.5t16.5 76q2 44 2 85t-2 83q-1 47 -17 76t-42.5 42.5t-61.5 13.5t-62 -13.5t-42.5 -42.5t-17.5 -76q-1 -42 -1 -83
t1 -85q2 -47 17.5 -76t42 -42.5t62.5 -13.5z" />
    <glyph glyph-name="uni042F" unicode="&#x42f;" horiz-adv-x="701" 
d="M477 0q-10 0 -17.5 7.5t-7.5 17.5v215h-133q-73 0 -129 28t-87.5 79t-31.5 121q0 67 31.5 119.5t91.5 82.5t147 30h266q10 0 17.5 -7t7.5 -18v-650q0 -10 -7.5 -17.5t-17.5 -7.5h-130zM77 0q-9 0 -15 6.5t-6 14.5q0 5 3 11l152 260l168 -30l-128 -235q-5 -10 -14.5 -18.5
t-26.5 -8.5h-133zM345 381h107v180h-107q-42 0 -64.5 -26.5t-22.5 -66.5q0 -41 21.5 -64t65.5 -23z" />
    <glyph glyph-name="uni0430" unicode="&#x430;" horiz-adv-x="590" 
d="M215 -10q-54 0 -96.5 20.5t-67.5 55.5t-25 79q0 71 58 112.5t154 56.5l125 19v14q0 36 -15 55t-55 19q-28 0 -45.5 -11t-27.5 -30q-9 -13 -25 -13h-112q-11 0 -17 6.5t-5 15.5q0 18 13.5 41.5t41.5 46.5t72 38t107 15q64 0 110 -15t75 -42t42.5 -63.5t13.5 -80.5v-304
q0 -10 -7.5 -17.5t-17.5 -7.5h-116q-11 0 -18 7.5t-7 17.5v35q-13 -19 -35 -35t-51.5 -25.5t-68.5 -9.5zM262 104q29 0 52.5 12.5t37 39t13.5 66.5v14l-85 -15q-47 -8 -68.5 -24.5t-21.5 -38.5q0 -17 10 -29t26.5 -18.5t35.5 -6.5z" />
    <glyph glyph-name="uni0431" unicode="&#x431;" horiz-adv-x="614" 
d="M309 -10q-90 0 -147.5 29t-85.5 89t-32 151q-1 30 -1 61t1 60q2 84 18 141.5t48 96t82.5 64.5t121.5 45.5t164 40.5q10 2 19.5 -3.5t10.5 -16.5l17 -92q2 -11 -3.5 -19t-14.5 -10q-78 -15 -131.5 -27.5t-87.5 -29t-52.5 -42t-25 -66t-5.5 -102.5l-24 29q8 25 31.5 46
t57 34t70.5 13q74 0 124.5 -25.5t77.5 -72t31 -112.5q3 -38 0 -72q-4 -65 -34.5 -112t-88 -72.5t-141.5 -25.5zM309 101q44 0 65 26t23 77q1 12 1 31t-1 33q-2 50 -22.5 76.5t-59.5 26.5q-46 0 -69 -26.5t-26 -76.5q-1 -14 -1 -33t1 -31q3 -51 24 -77t65 -26z" />
    <glyph glyph-name="uni0432" unicode="&#x432;" horiz-adv-x="606" 
d="M84 0q-11 0 -18 7.5t-7 17.5v470q0 11 7 18t18 7h234q119 0 173.5 -40t54.5 -108q0 -38 -15 -62t-40 -40q33 -17 52 -47t19 -69q0 -72 -56 -113t-173 -41h-249zM221 107h102q32 0 50.5 11.5t18.5 37.5t-17.5 37.5t-51.5 11.5h-102v-98zM221 317h100q32 0 50 12.5t18 37.5
q0 26 -18.5 36t-49.5 10h-100v-96z" />
    <glyph glyph-name="uni0433" unicode="&#x433;" horiz-adv-x="459" 
d="M84 0q-11 0 -18 7.5t-7 17.5v470q0 11 7 18t18 7h334q11 0 18 -7t7 -18v-81q0 -11 -7 -18t-18 -7h-191v-364q0 -10 -7 -17.5t-18 -7.5h-118z" />
    <glyph glyph-name="uni0434" unicode="&#x434;" horiz-adv-x="656" 
d="M48 -110q-10 0 -17.5 7.5t-7.5 17.5v191q0 11 7.5 18t17.5 7h10q26 1 40.5 26.5t20 75t5.5 121.5v141q0 11 7.5 18t17.5 7h393q11 0 18.5 -7t7.5 -18v-363h42q11 0 18 -7.5t7 -17.5v-192q0 -10 -7 -17.5t-18 -7.5h-118q-11 0 -18 7.5t-7 17.5v85h-275v-85
q0 -10 -7.5 -17.5t-17.5 -7.5h-119zM249 131l150 1v257h-114v-53q0 -75 -9.5 -125t-26.5 -80z" />
    <glyph glyph-name="uni0435" unicode="&#x435;" horiz-adv-x="594" 
d="M299 -10q-118 0 -188 64t-73 190v18v17q3 79 35.5 135.5t90 86t134.5 29.5q88 0 145.5 -35t86.5 -95t29 -137v-24q0 -11 -7 -18t-18 -7h-320v-3v-4q1 -29 10.5 -53t28 -38t45.5 -14q20 0 33.5 6.5t22.5 15t14 14.5q9 11 14.5 13.5t17.5 2.5h124q10 0 16.5 -6t5.5 -16
q-1 -17 -17 -41t-46.5 -47.5t-76.5 -38.5t-107 -15zM214 313h169v2q0 33 -9.5 56.5t-29 36.5t-46.5 13q-26 0 -45 -13t-29 -36.5t-10 -56.5v-2z" />
    <glyph glyph-name="uni0436" unicode="&#x436;" horiz-adv-x="914" 
d="M41 0q-10 0 -16 5.5t-6 14.5q0 7 4 13l161 236l-138 217q-1 3 -3 7t-2 7q0 9 6.5 14.5t15.5 5.5h128q12 0 18.5 -5.5t9.5 -10.5l109 -175h46v166q0 11 7.5 18t18.5 7h115q11 0 18 -7t7 -18v-166h46l109 175q3 5 10 10.5t18 5.5h128q9 0 15.5 -5.5t6.5 -14.5q0 -3 -1.5 -7
t-3.5 -7l-138 -217l161 -236q4 -6 4 -13q0 -9 -6 -14.5t-16 -5.5h-141q-13 0 -19.5 6t-9.5 10l-119 182h-44v-173q0 -10 -7 -17.5t-18 -7.5h-115q-11 0 -18.5 7.5t-7.5 17.5v173h-44l-119 -182q-2 -4 -9 -10t-20 -6h-141z" />
    <glyph glyph-name="uni0437" unicode="&#x437;" horiz-adv-x="558" 
d="M277 -10q-70 0 -115.5 15.5t-72.5 39t-38.5 50t-14.5 47.5q-1 8 5 13t13 5h116q11 0 16.5 -4t9.5 -11q9 -20 29.5 -29t53.5 -9q23 0 40.5 6t26.5 18t9 30q0 25 -15 38.5t-52 13.5h-56q-9 0 -15 6.5t-6 15.5v57q0 9 6 15.5t15 6.5h54q31 0 45 11.5t14 33.5q0 14 -7 26
t-21.5 19.5t-41.5 7.5q-37 0 -52.5 -10.5t-24.5 -32.5q-5 -7 -10 -11t-17 -4h-112q-8 0 -13 5t-5 13q3 26 15.5 53.5t39.5 51.5t71.5 38.5t109.5 14.5q85 0 135.5 -20.5t72.5 -54t22 -73.5q0 -34 -14 -62t-50 -46q45 -17 62 -52t17 -75q0 -48 -29.5 -83t-84.5 -54.5
t-131 -19.5z" />
    <glyph glyph-name="uni0438" unicode="&#x438;" horiz-adv-x="638" 
d="M83 0q-10 0 -17 7.5t-7 16.5v471q0 11 7 18t18 7h118q11 0 18 -7t7 -18v-365l-45 22l247 352q5 7 12 11.5t16 4.5h107q10 0 17 -7t7 -17v-471q0 -10 -7 -17.5t-18 -7.5h-118q-11 0 -18 7.5t-7 17.5v354l46 -9l-249 -354q-4 -7 -11 -11.5t-17 -4.5h-106z" />
    <glyph glyph-name="uni0439" unicode="&#x439;" horiz-adv-x="638" 
d="M83 0q-10 0 -17 7.5t-7 16.5v471q0 11 7 18t18 7h118q11 0 18 -7t7 -18v-365l-45 22l247 352q5 7 12 11.5t16 4.5h107q10 0 17 -7t7 -17v-471q0 -10 -7 -17.5t-18 -7.5h-118q-11 0 -18 7.5t-7 17.5v354l46 -9l-249 -354q-4 -7 -11 -11.5t-17 -4.5h-106zM332 588
q-63 0 -102 19.5t-56.5 52t-17.5 71.5q0 8 4.5 13.5t14.5 5.5h80q9 0 14 -5.5t5 -13.5q0 -21 11.5 -37t45.5 -16q35 0 46.5 16t11.5 37q0 8 5 13.5t14 5.5h80q9 0 14 -5.5t5 -13.5q0 -39 -17.5 -71.5t-56.5 -52t-101 -19.5z" />
    <glyph glyph-name="uni043A" unicode="&#x43a;" horiz-adv-x="606" 
d="M84 0q-11 0 -18 7.5t-7 17.5v470q0 11 7 18t18 7h115q11 0 18.5 -7t7.5 -18v-166h53l109 175q3 5 10 10.5t18 5.5h128q9 0 15.5 -5.5t6.5 -14.5q0 -3 -1.5 -7t-3.5 -7l-137 -218l160 -235q4 -6 4 -13q0 -9 -6 -14.5t-16 -5.5h-141q-11 0 -17.5 4.5t-11.5 11.5l-119 182
h-51v-173q0 -10 -7.5 -17.5t-18.5 -7.5h-115z" />
    <glyph glyph-name="uni043B" unicode="&#x43b;" horiz-adv-x="625" 
d="M51 0q-11 0 -18.5 7.5t-7.5 18.5v87q0 22 24 25q29 3 44 27t21 71t6 118v141q0 11 7.5 18t17.5 7h392q11 0 18.5 -7t7.5 -18v-470q0 -10 -7.5 -17.5t-18.5 -7.5h-118q-10 0 -17.5 7.5t-7.5 17.5v364h-114v-53q0 -96 -10 -161t-36 -103t-70.5 -55t-112.5 -17z" />
    <glyph glyph-name="uni043C" unicode="&#x43c;" horiz-adv-x="724" 
d="M79 0q-8 0 -14 6t-6 15v479q0 8 6 14t14 6h115q18 0 29 -18l137 -243l136 243q11 18 29 18h116q8 0 14 -6t6 -14v-479q0 -9 -6 -15t-15 -6h-124q-9 0 -15 6t-6 15v326l49 -11l-135 -236q-5 -9 -11.5 -15.5t-17.5 -6.5h-40q-11 0 -18 6t-13 16l-131 230l46 10v-319
q0 -9 -6 -15t-15 -6h-124z" />
    <glyph glyph-name="uni043D" unicode="&#x43d;" horiz-adv-x="638" 
d="M84 0q-11 0 -18 7.5t-7 17.5v470q0 11 7 18t18 7h118q11 0 18 -7t7 -18v-166h180v166q0 11 7 18t18 7h118q11 0 18 -7t7 -18v-470q0 -10 -7 -17.5t-18 -7.5h-118q-11 0 -18 7.5t-7 17.5v173h-180v-173q0 -10 -7 -17.5t-18 -7.5h-118z" />
    <glyph glyph-name="uni043E" unicode="&#x43e;" horiz-adv-x="611" 
d="M305 -10q-84 0 -141.5 27t-88 77.5t-34.5 120.5q-1 20 -1 45.5t1 44.5q4 71 36 121t89.5 77t138.5 27q82 0 139.5 -27t89.5 -77t36 -121q1 -19 1 -44.5t-1 -45.5q-4 -70 -34.5 -120.5t-88 -77.5t-142.5 -27zM305 112q45 0 65.5 27t23.5 81q1 15 1 40t-1 40
q-3 53 -23.5 80.5t-65.5 27.5q-43 0 -64.5 -27.5t-23.5 -80.5q-1 -15 -1 -40t1 -40q2 -54 23.5 -81t64.5 -27z" />
    <glyph glyph-name="uni043F" unicode="&#x43f;" horiz-adv-x="630" 
d="M84 0q-11 0 -18 7.5t-7 17.5v470q0 11 7 18t18 7h458q11 0 18.5 -7t7.5 -18v-470q0 -10 -7.5 -17.5t-18.5 -7.5h-118q-10 0 -17.5 7.5t-7.5 17.5v364h-172v-364q0 -10 -7 -17.5t-18 -7.5h-118z" />
    <glyph glyph-name="uni0440" unicode="&#x440;" horiz-adv-x="631" 
d="M84 -190q-11 0 -18 7.5t-7 17.5v660q0 11 7 18t18 7h113q10 0 17.5 -7t7.5 -18v-36q24 30 62 50.5t93 20.5q50 0 88 -15.5t65.5 -45.5t42.5 -73t17 -99q1 -20 1 -37t-1 -37q-2 -54 -17 -97t-42 -73t-65.5 -46.5t-88.5 -16.5q-49 0 -85.5 17.5t-60.5 49.5v-222
q0 -10 -7 -17.5t-18 -7.5h-122zM323 124q34 0 53 14t27.5 38t10.5 53q2 31 0 62q-2 29 -10.5 53t-27.5 38t-53 14q-32 0 -52 -14.5t-29 -37.5t-11 -50q-1 -19 -1 -37t1 -38q1 -25 11 -46.5t30 -35t51 -13.5z" />
    <glyph glyph-name="uni0441" unicode="&#x441;" horiz-adv-x="590" 
d="M298 -10q-74 0 -131 27t-90.5 78.5t-36.5 123.5q-1 16 -1 40.5t1 40.5q3 73 36 124.5t90.5 78.5t131.5 27q69 0 118.5 -19.5t80 -48.5t46 -59.5t16.5 -53.5q1 -10 -7 -17.5t-18 -7.5h-127q-11 0 -17 5t-11 15q-12 31 -30.5 44t-47.5 13q-40 0 -61.5 -26t-23.5 -80
q-1 -40 0 -71q3 -55 24 -80t61 -25q31 0 49 13.5t29 43.5q5 10 11 15t17 5h127q10 0 18 -7t7 -18q-1 -16 -10 -39t-28 -48t-49.5 -46t-73.5 -34.5t-100 -13.5z" />
    <glyph glyph-name="uni0442" unicode="&#x442;" horiz-adv-x="548" 
d="M216 0q-10 0 -17.5 7.5t-7.5 17.5v364h-152q-10 0 -17.5 7t-7.5 18v81q0 11 7.5 18t17.5 7h470q11 0 18 -7t7 -18v-81q0 -11 -7 -18t-18 -7h-152v-364q0 -10 -7 -17.5t-18 -7.5h-116z" />
    <glyph glyph-name="uni0443" unicode="&#x443;" horiz-adv-x="593" 
d="M109 -191q-11 0 -18 7.5t-7 18.5v80q0 11 7 18.5t18 7.5h35q18 0 30 6.5t21.5 22t20.5 42.5l200 487q3 9 10 15t20 6h107q9 0 15.5 -6.5t6.5 -14.5q0 -2 -0.5 -5t-2.5 -8l-190 -458q-20 -49 -41 -89t-46.5 -69.5t-59 -45t-77.5 -15.5h-49zM227 11l-205 475q-3 7 -3 12
q2 9 8 15.5t16 6.5h112q13 0 19.5 -6.5t9.5 -14.5l143 -366z" />
    <glyph glyph-name="uni0444" unicode="&#x444;" horiz-adv-x="807" 
d="M344 -190q-10 0 -17.5 7.5t-7.5 17.5v165q-91 0 -151.5 26.5t-91.5 75.5t-35 117q-3 41 0 82q4 69 37 118t93.5 75t147.5 26v165q0 11 7.5 18t17.5 7h118q11 0 18.5 -7t7.5 -18v-165q87 0 147.5 -26t93.5 -75t37 -118q2 -41 0 -82q-4 -68 -35.5 -117t-91.5 -75.5
t-151 -26.5v-165q0 -10 -7.5 -17.5t-18.5 -7.5h-118zM320 122v276q-57 0 -83 -26.5t-29 -81.5q-1 -14 -1 -31t1 -29q4 -57 30 -82.5t82 -25.5zM486 122q59 0 84 26t29 82q1 12 1 29t-1 31q-3 56 -29.5 82t-83.5 26v-276z" />
    <glyph glyph-name="uni0445" unicode="&#x445;" horiz-adv-x="588" 
d="M38 0q-9 0 -15.5 6.5t-6.5 16.5q0 2 1 6.5t4 8.5l167 229l-152 215q-3 4 -4.5 8t-1.5 8q0 9 7 15.5t16 6.5h122q13 0 19.5 -6t9.5 -11l93 -128l92 127q4 5 10.5 11.5t19.5 6.5h117q9 0 15.5 -6.5t6.5 -15.5q0 -4 -1 -8t-4 -8l-156 -215l170 -229q3 -4 4 -8t1 -7
q0 -10 -6.5 -16.5t-15.5 -6.5h-128q-12 0 -18 5.5t-10 10.5l-101 137l-102 -137l-10 -10t-18 -6h-125z" />
    <glyph glyph-name="uni0446" unicode="&#x446;" horiz-adv-x="656" 
d="M492 -117q-11 0 -18 7t-7 18v92h-383q-11 0 -18 7.5t-7 17.5v470q0 11 7 18t18 7h118q11 0 18 -7t7 -18v-364h172v364q0 11 7.5 18t17.5 7h118q11 0 18.5 -7t7.5 -18l-1 -364h43q11 0 18 -7t7 -18v-198q0 -11 -7 -18t-18 -7h-118z" />
    <glyph glyph-name="uni0447" unicode="&#x447;" horiz-adv-x="605" 
d="M389 0q-11 0 -18 7.5t-7 17.5v152q-23 -18 -58 -27.5t-78 -9.5q-94 0 -144.5 48t-50.5 154v153q0 11 7 18t18 7h122q11 0 18 -7t7 -18v-145q0 -35 17.5 -49.5t56.5 -14.5q37 0 61 11.5t24 36.5v161q0 11 7 18t18 7h128q11 0 18 -7t7 -18v-470q0 -10 -7 -17.5t-18 -7.5
h-128z" />
    <glyph glyph-name="uni0448" unicode="&#x448;" horiz-adv-x="830" 
d="M84 0q-11 0 -18 7.5t-7 17.5v470q0 11 7 18t18 7h112q10 0 17.5 -7t7.5 -18v-364h116v364q0 11 7 18t18 7h102q11 0 18 -7t7 -18v-364h116v364q0 11 7.5 18t17.5 7h112q11 0 18 -7t7 -18v-470q0 -10 -7 -17.5t-18 -7.5h-658z" />
    <glyph glyph-name="uni0449" unicode="&#x449;" horiz-adv-x="856" 
d="M692 -117q-10 0 -17.5 7t-7.5 18v92h-583q-11 0 -18 7.5t-7 17.5v470q0 11 7 18t18 7h112q10 0 17.5 -7t7.5 -18v-364h116v364q0 11 7 18t18 7h102q11 0 18 -7t7 -18v-364h116v364q0 11 7.5 18t17.5 7h112q11 0 18 -7t7 -18v-364h43q11 0 18 -7t7 -18v-198q0 -11 -7 -18
t-18 -7h-118z" />
    <glyph glyph-name="uni044A" unicode="&#x44a;" horiz-adv-x="649" 
d="M182 0q-11 0 -18 7.5t-7 17.5v364h-118q-10 0 -17.5 7t-7.5 18v81q0 11 7.5 18t17.5 7h262q10 0 17.5 -7t7.5 -18v-135h87q101 0 156 -48.5t55 -133.5q0 -87 -57.5 -132.5t-158.5 -45.5h-226zM323 115h75q39 0 57.5 15t18.5 48q0 34 -18 51t-58 17h-75v-131z" />
    <glyph glyph-name="uni044B" unicode="&#x44b;" horiz-adv-x="823" 
d="M84 0q-11 0 -18 7.5t-7 17.5v470q0 11 7 18t18 7h119q10 0 17.5 -7t7.5 -18v-135h91q101 0 156 -48.5t55 -133.5q0 -87 -57.5 -132.5t-159.5 -45.5h-229zM225 115h79q39 0 57 15t18 48q0 34 -17.5 51t-57.5 17h-79v-131zM617 0q-11 0 -18.5 7.5t-7.5 17.5v470
q0 11 7.5 18t18.5 7h118q10 0 17.5 -7t7.5 -18v-470q0 -10 -7.5 -17.5t-17.5 -7.5h-118z" />
    <glyph glyph-name="uni044C" unicode="&#x44c;" horiz-adv-x="559" 
d="M84 0q-11 0 -18 7.5t-7 17.5v470q0 11 7 18t18 7h119q10 0 17.5 -7t7.5 -18v-135h95q100 0 155.5 -48.5t55.5 -133.5q0 -87 -57.5 -132.5t-159.5 -45.5h-233zM225 115h83q39 0 57 15t18 48q0 34 -18 51t-57 17h-83v-131z" />
    <glyph glyph-name="uni044D" unicode="&#x44d;" horiz-adv-x="596" 
d="M286 -10q-68 0 -114 15.5t-73.5 40t-40 52t-15.5 51.5q-2 8 4.5 13.5t13.5 5.5h115q12 0 17 -4t9 -11q12 -24 32 -35t52 -11q41 0 64 23.5t24 73.5v6h-146q-9 0 -15 6.5t-6 15.5v57q0 9 6 15.5t15 6.5h146v5q-1 47 -24 71.5t-64 24.5q-31 0 -51.5 -10.5t-33.5 -35.5
q-5 -7 -9.5 -11.5t-16.5 -4.5h-111q-8 0 -14 5.5t-5 13.5q3 24 16 52t40.5 53t72.5 40.5t112 15.5q121 0 190 -58.5t74 -167.5q2 -19 2 -43.5t-2 -44.5q-5 -109 -71.5 -167.5t-192.5 -58.5z" />
    <glyph glyph-name="uni044E" unicode="&#x44e;" horiz-adv-x="872" 
d="M395 198h-168v-173q0 -10 -7 -17.5t-18 -7.5h-118q-11 0 -18 7.5t-7 17.5v470q0 11 7 18t18 7h118q11 0 18 -7t7 -18v-166h168v-131zM567 -10q-85 0 -142 27t-88 77.5t-35 120.5q-1 20 -1 45.5t1 44.5q4 71 36 121t90 77t139 27t138.5 -27t89.5 -77t36 -121
q2 -19 2 -44.5t-2 -45.5q-4 -70 -34.5 -120.5t-88 -77.5t-141.5 -27zM567 112q44 0 65 27t23 81q1 15 1 40t-1 40q-2 53 -23 80.5t-65 27.5t-65.5 -27.5t-23.5 -80.5q-1 -15 -1 -40t1 -40q2 -54 23.5 -81t65.5 -27z" />
    <glyph glyph-name="uni044F" unicode="&#x44f;" horiz-adv-x="604" 
d="M394 0q-11 0 -18 7.5t-7 17.5v142h-84v5q-106 0 -162 46.5t-56 126.5q0 86 56.5 130.5t156.5 44.5h236q11 0 18 -7t7 -18v-470q0 -10 -7 -17.5t-18 -7.5h-122zM71 0q-10 0 -16 6t-6 14q0 3 1.5 6.5t3.5 7.5l107 176l146 -25l-93 -170q-4 -6 -10 -10.5t-14 -4.5h-119z
M285 282h87v123h-83q-37 0 -54.5 -14t-17.5 -46q0 -28 16.5 -45.5t51.5 -17.5z" />
    <glyph glyph-name="uni0450" unicode="&#x450;" horiz-adv-x="594" 
d="M299 -10q-118 0 -188 64t-73 190v18v17q3 79 35.5 135.5t90 86t134.5 29.5q88 0 145.5 -35t86.5 -95t29 -137v-24q0 -11 -7 -18t-18 -7h-320v-3v-4q1 -29 10.5 -53t28 -38t45.5 -14q20 0 33.5 6.5t22.5 15t14 14.5q9 11 14.5 13.5t17.5 2.5h124q10 0 16.5 -6t5.5 -16
q-1 -17 -17 -41t-46.5 -47.5t-76.5 -38.5t-107 -15zM214 313h169v2q0 33 -9.5 56.5t-29 36.5t-46.5 13q-26 0 -45 -13t-29 -36.5t-10 -56.5v-2zM270 595q-14 0 -22 3.5t-16 10.5l-133 109q-5 5 -5 13q0 19 19 19h132q13 0 20 -3.5t17 -15.5l88 -107q5 -5 5 -13
q0 -16 -16 -16h-89z" />
    <glyph glyph-name="uni0451" unicode="&#x451;" horiz-adv-x="594" 
d="M299 -10q-118 0 -188 64t-73 190v18v17q3 79 35.5 135.5t90 86t134.5 29.5q88 0 145.5 -35t86.5 -95t29 -137v-24q0 -11 -7 -18t-18 -7h-320v-3v-4q1 -29 10.5 -53t28 -38t45.5 -14q20 0 33.5 6.5t22.5 15t14 14.5q9 11 14.5 13.5t17.5 2.5h124q10 0 16.5 -6t5.5 -16
q-1 -17 -17 -41t-46.5 -47.5t-76.5 -38.5t-107 -15zM214 313h169v2q0 33 -9.5 56.5t-29 36.5t-46.5 13q-26 0 -45 -13t-29 -36.5t-10 -56.5v-2zM355 607q-10 0 -16.5 6t-6.5 17v91q0 10 6.5 16.5t16.5 6.5h92q10 0 16.5 -6.5t6.5 -16.5v-91q0 -11 -6.5 -17t-16.5 -6h-92z
M148 607q-10 0 -16 6t-6 17v91q0 10 6 16.5t16 6.5h92q10 0 16.5 -6.5t6.5 -16.5v-91q0 -11 -6.5 -17t-16.5 -6h-92z" />
    <glyph glyph-name="uni0452" unicode="&#x452;" horiz-adv-x="657" 
d="M322 -190q-10 0 -17.5 7.5t-7.5 17.5v81q0 11 7.5 18t17.5 7h14q30 0 48.5 10t29 28t14 42t3.5 53v183q0 47 -23 72.5t-66 25.5q-41 0 -66 -25.5t-25 -72.5v-232q0 -10 -7 -17.5t-18 -7.5h-128q-11 0 -18 7.5t-7 17.5v514h-38q-11 0 -18.5 7.5t-7.5 17.5v37
q0 11 7.5 18.5t18.5 7.5h38v58q0 11 7 18t18 7h128q11 0 18 -7t7 -18v-58h129q11 0 18 -7.5t7 -18.5v-37q0 -10 -7 -17.5t-18 -7.5h-129v-119q27 32 66 50.5t92 18.5q65 0 110 -29.5t68 -80t23 -116.5v-193q0 -60 -16 -107.5t-48 -82t-80 -52.5t-111 -18h-33z" />
    <glyph glyph-name="uni0453" unicode="&#x453;" horiz-adv-x="459" 
d="M84 0q-11 0 -18 7.5t-7 17.5v470q0 11 7 18t18 7h334q11 0 18 -7t7 -18v-81q0 -11 -7 -18t-18 -7h-191v-364q0 -10 -7 -17.5t-18 -7.5h-118zM204 595q-16 0 -16 16q0 8 5 13l88 107q10 12 17 15.5t20 3.5h132q19 0 19 -20q0 -7 -5 -12l-133 -109q-8 -7 -16 -10.5
t-22 -3.5h-89z" />
    </font>
</defs>
</svg>
